Welcome Guest ( Log In | Register )

> Releases Upload / Добавление релизов

Добавить релиз тут / Click here to add release
Рекомендованные обменники / Recommended file shares

 
Reply to this topicStart new topic
> Godskill - II: The Gatherer Of Fear And Blood (2018), Death Metal/Deathcore
post Nov 8 2018, 15:01:44
Post #1

Serial Uploader
Group Icon
Group: V.I.P
Posts: 33,290
Releases: 31565
From: Lithuania
On Forums: 10 years 5 months
Thanks: 360606 time(s)
Lithuania


(IMG:https://metalarea.org/images/audiocovers/2018_Nov/acov_tid312741_thumb.jpg)

*Artist: Godskill
*Album: II: The Gatherer Of Fear And Blood
*Year: 2018
*Genre: Death Metal/Deathcore
*Country: Germany (IMG:https://metalarea.org/forum/style_images/flags/Germany.png)
*Format: mp3@CBR320kbps
*Size: 81MB

Tracklist:
01. The Eleven Kills the Ten 04:51
02. Demon Mother 04:58
03. Ungodly is the Flesh 04:28
04. The Gatherer of Fear and Blood 05:11
05. From the Ashes of Angels 04:07
06. The Shell 04:48
07. Preliminary Invocation 02:14
08. Becoming a God 04:35
******************************
Total playing time: 35:12

(IMG:https://metalarea.org/images/myspace.png)



Technical info
(IMG:https://metalarea.org/images/spectrogram/2018_Nov/2f1c0c7ad9a111a91a4009fe46dd7c46.png)
Input File: 02-godskill-demon_mother-bb503742.mp3
Channels : 2
Sample Rate : 44100
Precision : 16-bit
Duration : 00:04:58.00 = 13141712 samples = 22349.9 CDDA sectors
File Size : 12.1M
Bit Rate : 324k
Sample Encoding: MPEG audio (layer I, II or III)
Comments :
Title=Demon Mother
Artist=GodSkill
Album=II - Gatherer Of Fear And Blood
Tracknumber=2/8
Year=2018
Genre=Death Metal



Register


Thanks:
Go to the top of the page
  Insert nick Quick quote
+Quote Post

Reply to this topicStart new topic
2 User(s) are reading this topic (2 Guests and 0 Anonymous Users)
0 Members:

 



- Lo-Fi Version Support form
Copyrights and abuse reports form
Time is now: 17th November 2018 - 22:34:25