Welcome Guest ( Log In | Register )

> Kuar Nhial - Kuar Nhial (2018), Black Metal
post Nov 8 2018, 15:06:16
Post #1

Serial Uploader
Group Icon
Group: V.I.P
Posts: 34,380
Releases: 32612
From: Lithuania
On Forums: 10 years 9 months
Thanks: 372209 time(s)
Lithuania


(IMG:https://metalarea.org/images/audiocovers/2018_Nov/acov_tid312742_thumb.jpg)

*Artist: Kuar Nhial
*Album: Kuar Nhial
*Year: 2018
*Genre: Black Metal
*Country: Belgium (IMG:https://metalarea.org/forum/style_images/flags/Belgium.png)
*Format: mp3@CBR320kbps
*Size: 68MB

Tracklist:
01. Corvus
02. Nonam
03. Spiraal
04. Lamantate
******************************
Total playing time: 29:38



(IMG:https://metalarea.org/images/youtube.png)

Technical info
(IMG:https://metalarea.org/images/spectrogram/2018_Nov/36460a7ff0f48ca014ebaa26ee58099e.png)
Input File: 02-kuar_nhial-nonam-1859db5a.mp3
Channels : 2
Sample Rate : 44100
Precision : 16-bit
Duration : 00:06:26.85 = 17059865 samples = 29013.4 CDDA sectors
File Size : 15.8M
Bit Rate : 326k
Sample Encoding: MPEG audio (layer I, II or III)
Comments :
Title=Nonam
Artist=Kuar Nhial
Album=Kuar Nhial
Tracknumber=2/4
Year=2018
Genre=Metal



Register


Go to the top of the page
  Insert nick Quick quote
+Quote Post
 
Start new topic
Replies (1 - 2)
post Nov 9 2018, 07:03:27
Post #2

 
*****
Group: Металариец
Posts: 487
Releases: 1
On Forums: 1 year 9 months
Thanks: 222 time(s)
Russian Federation


с уклоном в атмосферик, неплохо так. быстро пролетел, правда
Go to the top of the page
  Insert nick Quick quote
+Quote Post
post Nov 10 2018, 19:06:52
Post #3

Правь статус, ####!111
**************
Group: Металариец
Posts: 2,224
Releases: 1
From: Dnipro
On Forums: 10 years 8 months
Thanks: 567 time(s)
Ukraine


С примесью експериментала и пост БМ, вроде как то так.
Go to the top of the page
  Insert nick Quick quote
+Quote Post

Reply to this topicStart new topic
2 User(s) are reading this topic (2 Guests and 0 Anonymous Users)
0 Members:

 



- Lo-Fi Version Support form
Copyrights and abuse reports form
Time is now: 25th March 2019 - 22:50:32