Welcome Guest ( Log In | Register )

> Releases Upload / Добавление релизов

Добавить релиз тут / Click here to add release
Рекомендованные обменники / Recommended file shares

> Athrox - Through The Mirror (2018), Heavy/Thrash Metal
post Nov 8 2018, 15:07:32
Post #1

Аннигилятор пивА
Group Icon
Group: V.I.P
Posts: 50,415
Releases: 15653
From: Koenigsberg - TILZIT
On Forums: 12 years 5 months
Thanks: 340138 time(s)
Russian Federation


(IMG:https://metalarea.org/images/audiocovers/2018_Nov/acov_tid312743_thumb.jpg)

*Artist: Athrox
*Album: Through The Mirror
*Year: 2018
*Genre: Heavy/Thrash Metal
*Country: Italy (IMG:https://metalarea.org/forum/style_images/flags/Italy.png)
*Format: mp3@CBR320kbps
*Size: 126MB

Tracklist:
01. Waters of the Acheron
02. Ashes of Warsaw
03. Empty Soul
04. Through the Mirror
05. Imagine the Day
06. Decide or Die
07. Sadness n' Tears
08. Fragments
09. Dreams of Freedom
10. Fallen Apart
******************************
Total playing time: 51:28



Extended info
Lobo- Bass (2014-present)
Aroon - Drums (2014-present) See also: Stillborn, ex-Nhorizon, ex-Athena
Frank - Guitars (2014-present)
Syro - Guitars (2014-present)
Ian - Vocals (2015-present)



Technical info
(IMG:https://metalarea.org/images/spectrogram/2018_Nov/47852aed2670480f0627b093ff0fe669.png)
Input File: 03. Empty Soul.mp3
Channels : 2
Sample Rate : 44100
Precision : 16-bit
Duration : 00:04:38.85 = 12297241 samples = 20913.7 CDDA sectors
File Size : 12.0M
Bit Rate : 343k
Sample Encoding: MPEG audio (layer I, II or III)
Comments :
Title=Empty Soul
Artist=Athrox
Album=Through the Mirror
Tracknumber=3/10
Year=2018
Discnumber=1/1



Register


Thanks:
Go to the top of the page
  Insert nick Quick quote
+Quote Post
 
Start new topic
Replies (1 - 4)
post Nov 9 2018, 11:05:10
Post #2

MDM-Thrash Metal
**************
Group: Металариец
Posts: 7,245
Releases: 422
From: Одесса
On Forums: 11 years 3 months
Thanks: 13780 time(s)
Ukraine


- All 10 Tracks
Go to the top of the page
  Insert nick Quick quote
+Quote Post
post Nov 9 2018, 19:43:54
Post #3

И Ван Дамм По Делам Вашим!
**************
Group: Металариец
Posts: 16,283
Releases: 27
On Forums: 10 years 4 months
Thanks: 8648 time(s)
Honduras


Блин,по называются одинаково,а ты нервничай.
Go to the top of the page
  Insert nick Quick quote
+Quote Post
post Nov 9 2018, 19:51:36
Post #4

Аннигилятор пивА
Group Icon
Group: V.I.P
Posts: 50,415
Releases: 15653
From: Koenigsberg - TILZIT
On Forums: 12 years 5 months
Thanks: 340138 time(s)
Russian Federation


ЦИТАТА(hammer @ Nov 9 2018, 18:43:54) *
Блин,по называются одинаково,а ты нервничай.

хэ все-таки лишняя в этом случае (IMG:style_emoticons/default/25.gif)
Go to the top of the page
  Insert nick Quick quote
+Quote Post
post Nov 9 2018, 20:49:48
Post #5

И Ван Дамм По Делам Вашим!
**************
Group: Металариец
Posts: 16,283
Releases: 27
On Forums: 10 years 4 months
Thanks: 8648 time(s)
Honduras


ЦИТАТА(aesteticvice @ Nov 9 2018, 20:51:36) *
хэ все-таки лишняя в этом случае (IMG:style_emoticons/default/25.gif)

ну это как с недавним типа Луцеферион. (IMG:style_emoticons/default/1488.gif) Мы же люди темные, грамоте гишпанской, не обучены.Если не веришь у Кручинина спроси. (IMG:style_emoticons/default/1488.gif)
Go to the top of the page
  Insert nick Quick quote
+Quote Post

Reply to this topicStart new topic
1 User(s) are reading this topic (1 Guests and 0 Anonymous Users)
0 Members:

 



- Lo-Fi Version Support form
Copyrights and abuse reports form
Time is now: 19th November 2018 - 22:35:20