Welcome Guest ( Log In | Register )

> Releases Upload / Добавление релизов

Добавить релиз тут / Click here to add release
Рекомендованные обменники / Recommended file shares

> Nanowar Of Steel - Stairway To Valhalla (2018), Heavy/Power Metal (D4)
post Nov 8 2018, 15:23:34
Post #1

Serial Uploader
Group Icon
Group: V.I.P
Posts: 33,290
Releases: 31565
From: Lithuania
On Forums: 10 years 5 months
Thanks: 360604 time(s)
Lithuania


(IMG:https://metalarea.org/images/audiocovers/2018_Nov/acov_tid312744_thumb.jpg)

*Artist: Nanowar Of Steel
*Album: Stairway To Valhalla
*Year: 2018
*Genre: Heavy/Power Metal
*Country: Italy (IMG:https://metalarea.org/forum/style_images/flags/Italy.png)
*Format: mp3@CBR320kbps
*Size: 139MB

Tracklist:
01. Declination
02. Barbie, MILF Princess of the Twilight
03. The Call of Cthulhu
04. Heavy Metal Kibbles
05. Il maestro Myagi di Pino
06. L'opelatole ecologico
07. Images and Swords
08. In the Sky
09. ...and Then I Noticed That She Was a Gargoyle
10. Tooth Fairy
11. Vegan Velociraptor
12. Another Drill in the Wall
13. Ironmonger (The Copier of the Seven Keys)
14. Bum Voyage
15. Uranus
16. The Crown and the Onion Ring
17. The Quest for Carrefour
18. Hail to Liechtenstein
******************************
Total playing time: 1:00:44

(IMG:https://metalarea.org/images/myspace.png)


(IMG:https://metalarea.org/images/youtube.png)

Technical info
(IMG:https://metalarea.org/images/spectrogram/2018_Nov/4af1eb8b91c4a2d23b828ab36e1ca428.png)
Input File: 02-nanowar_of_steel_feat_fabio_lione-barbie_milf_princess_of_the_twilight-a91396d7.mp3
Channels : 2
Sample Rate : 44100
Precision : 16-bit
Duration : 00:05:15.37 = 13907817 samples = 23652.8 CDDA sectors
File Size : 12.8M
Bit Rate : 324k
Sample Encoding: MPEG audio (layer I, II or III)
Comments :
Title=Barbie, Milf Princess of the Twilight
Artist=Nanowar Of Steel feat. Fabio Lione
Album=Stairway To Valhalla
Tracknumber=2/18
Year=2018
Genre=Metal



Register


Go to the top of the page
  Insert nick Quick quote
+Quote Post
 
Start new topic
Replies (1 - 6)
post Nov 9 2018, 03:29:08
Post #2

Правь статус, ####!111
**************
Group: Металариец
Posts: 14,983
Releases: 10266
From: Г.Харьков
On Forums: 6 years 6 months
Thanks: 169406 time(s)
Unknown


Cloud Mail 320
Register


Go to the top of the page
  Insert nick Quick quote
+Quote Post
post Nov 9 2018, 10:27:41
Post #3

Правь статус, ####!111
**************
Group: Металариец
Posts: 2,098
Releases: 23
From: Nakhodka
On Forums: 8 years 5 months
Thanks: 1682 time(s)
Russian Federation


Мановар, Рапсоди... теперь и до Териона добрались. Третий трек дюже забавен. (IMG:style_emoticons/default/1488.gif)
Go to the top of the page
  Insert nick Quick quote
+Quote Post
post Nov 9 2018, 20:13:04
Post #4

Правь статус, ####!111
**************
Group: Металариец
Posts: 2,828
Releases: 0
From: Одесса
On Forums: 10 years 8 months
Thanks: 1180 time(s)
Ukraine


shortest jokes are the best


Thanks:
(1) Ghostb,
Go to the top of the page
  Insert nick Quick quote
+Quote Post
post Nov 9 2018, 21:57:06
Post #5

Четыре Литра
****
Group: Металариец
Posts: 388
Releases: 0
From: South Of Heaven
On Forums: 11 years 3 months
Thanks: 146 time(s)
Ukraine


parody metal ?
Go to the top of the page
  Insert nick Quick quote
+Quote Post
post Nov 10 2018, 12:08:17
Post #6

Попсовик от брутала
**************
Group: Металариец
Posts: 6,347
Releases: 60
From: Минск
On Forums: 9 years 11 months
Thanks: 5212 time(s)
Belarus


Стёб пока не весь прочухал, но по музлу альбом точно удался. Зело хитово.
Go to the top of the page
  Insert nick Quick quote
+Quote Post
post Nov 10 2018, 18:52:43
Post #7

21st Century Schizoid Man
**************
Group: Металариец
Posts: 5,395
Releases: 67
From: Moscow
On Forums: 10 years 6 months
Thanks: 4192 time(s)
Russian Federation


Зажигательный материал, почти все ходы выглядят знакомыми, но источник иногда не могу определить. Пожалуй, по хитовости можно поставить рядом с 2010-м. Вот между ними - какое-то недоразумение.
Go to the top of the page
  Insert nick Quick quote
+Quote Post

Reply to this topicStart new topic
2 User(s) are reading this topic (2 Guests and 0 Anonymous Users)
0 Members:

 



- Lo-Fi Version Support form
Copyrights and abuse reports form
Time is now: 17th November 2018 - 22:07:32