Welcome Guest ( Log In | Register )

> Releases Upload / Добавление релизов

Добавить релиз тут / Click here to add release
Рекомендованные обменники / Recommended file shares

> Septagon - Apocalyptic Rhymes (2018), Speed/Thrash Metal
post Nov 8 2018, 15:28:04
Post #1

Serial Uploader
Group Icon
Group: V.I.P
Posts: 33,290
Releases: 31565
From: Lithuania
On Forums: 10 years 5 months
Thanks: 360604 time(s)
Lithuania


(IMG:https://metalarea.org/images/audiocovers/2018_Nov/acov_tid312745_thumb.jpg)

*Artist: Septagon
*Album: Apocalyptic Rhymes
*Year: 2018
*Genre: Speed/Thrash Metal
*Country: Germany (IMG:https://metalarea.org/forum/style_images/flags/Germany.png)
*Format: mp3@CBR320kbps
*Size: 98MB

Tracklist:
01. The End 01:16
02. The Weight of the World 04:38
03. Home, Sweet Hell 05:16
04. Apocalyptic Rhymes 03:39
05. Make a Stand 03:36
06. The Unfathomable Evil 03:35
07. P.O.T.U.S.A. 04:56
08. Cosmic Outrage 04:22
09. Nothingness Awaits 03:15
10. Sunset Blood 07:19
******************************
Total playing time: 41:52





Technical info
(IMG:https://metalarea.org/images/spectrogram/2018_Nov/84446707461d2bc4a3fb0208f8416ba9.png)
Input File: 02-septagon-the_weight_of_the_world-456b23df.mp3
Channels : 2
Sample Rate : 44100
Precision : 16-bit
Duration : 00:04:39.87 = 12342179 samples = 20990.1 CDDA sectors
File Size : 11.4M
Bit Rate : 325k
Sample Encoding: MPEG audio (layer I, II or III)
Comments :
Title=The Weight of the World
Artist=Septagon
Album=Apocalyptic Rhymes
Tracknumber=2/10
Year=2018
Genre=Heavy Metal



Register


Go to the top of the page
  Insert nick Quick quote
+Quote Post
 
Start new topic
Replies (1 - 1)
post Nov 9 2018, 03:15:59
Post #2

Правь статус, ####!111
**************
Group: Металариец
Posts: 14,983
Releases: 10266
From: Г.Харьков
On Forums: 6 years 6 months
Thanks: 169406 time(s)
Unknown



Cloud Mail 320
Register


Thanks:
Go to the top of the page
  Insert nick Quick quote
+Quote Post

Reply to this topicStart new topic
1 User(s) are reading this topic (1 Guests and 0 Anonymous Users)
0 Members:

 



- Lo-Fi Version Support form
Copyrights and abuse reports form
Time is now: 17th November 2018 - 22:07:46