Welcome Guest ( Log In | Register )

> Releases Upload / Добавление релизов

Добавить релиз тут / Click here to add release
Рекомендованные обменники / Recommended file shares

> Tempestatis - Cognitio Mythos Sophia (2017), Black Metal
post Nov 8 2018, 18:38:46
Post #1

Маньяк
**********
Group: Металариец
Posts: 1,430
Releases: 1115
From: Prešov
On Forums: 4 years 7 months
Thanks: 26250 time(s)
Slovakia


(IMG:http://metalarea.org/images/audiocovers/2018_Nov/acov_tid312746_thumb.jpg)

*Artist: Tempestatis
*Album: Cognitio Mythos Sophia
*Year: 2017
*Genre: Black Metal
*Country: Chile (IMG:http://metalarea.org/forum/style_images/flags/Chile.png)
*Format: mp3@CBR320kbps
*Size: 134MB

Tracklist:
1. La symétrie trompeuse 02:16
2. Insurrection 07:25
3. The Betrayer 05:14
4. My Own Road 05:31
5. Unveil the Deceiver (Burn the Temple) 02:52
6. La recta provincia 03:36
7. Ancient Fortress Evocation 06:04
8. Dunwich 06:11
9. Hyperborea's Harvest 05:55
10. Endalaus Planetan (Heimsins End) 03:15
11. Hidden track (Arcana cover) 03:53
******************************
Total playing time: 52:12

Extended info
Mushantufe Productions - MP XXX
Tape-rip + Scans

Album was recorded in 2002 with Frost and Kæffel from Hetroertzen.
Narration by Alex Kurtagić


Technical info
(IMG:http://metalarea.org/images/spectrogram/2018_Nov/ac98ac807ccc321ff62158828299ad57.png)
Input File: A4. My Own Road.mp3
Channels : 2
Sample Rate : 48000
Precision : 16-bit
Duration : 00:05:33.82 = 16023312 samples ~ 25036.4 CDDA sectors
File Size : 13.6M
Bit Rate : 327k
Sample Encoding: MPEG audio (layer I, II or III)
Comments :
Title=My Own Road
Artist=Tempestatis
Album=Cognitio Mythos Sophia
Tracknumber=04/11
Year=2017
Genre=Black Metal



Register


Go to the top of the page
  Insert nick Quick quote
+Quote Post
 
Start new topic
Replies (1 - 1)
post Nov 11 2018, 16:00:45
Post #2

Маньяк
**********
Group: Металариец
Posts: 1,496
Releases: 23
From: Spain
On Forums: 11 years 2 months
Thanks: 1152 time(s)
Spain


Nice album!!! Thanks (IMG:style_emoticons/default/20.gif) (IMG:style_emoticons/default/20.gif)

Register
Go to the top of the page
  Insert nick Quick quote
+Quote Post

Reply to this topicStart new topic
2 User(s) are reading this topic (2 Guests and 0 Anonymous Users)
0 Members:

 



- Lo-Fi Version Support form
Copyrights and abuse reports form
Time is now: 17th November 2018 - 22:10:03