Welcome Guest ( Log In | Register )

> Releases Upload / Добавление релизов

Добавить релиз тут / Click here to add release
Рекомендованные обменники / Recommended file shares

 
Reply to this topicStart new topic
> Hare - Proud To Be Loud (1996), Alternative/Groove Metal
post Nov 8 2018, 19:10:12
Post #1

Девять Литров
*********
Group: Металариец
Posts: 911
Releases: 50
On Forums: 11 years 8 months
Thanks: 758 time(s)
Ukraine


(IMG:http://metalarea.org/images/audiocovers/2018_Nov/acov_tid312747_thumb.jpg)

*Artist: Hare
*Album: Proud To Be Loud
*Year: 1996
*Genre: Alternative Metal/Groove Metal
*Country: Switzerland (IMG:http://metalarea.org/forum/style_images/flags/Switzerland.png)
*Format: mp3@CBR320kbps
*Size: 88MB

Tracklist:
1. Love Me to the Bone 03:54
2. Crawling 04:15
3. Sorrow 04:04
4. Lies 03:47
5. Different Ways 02:22
6. Blind 04:26
7. Otaku 03:48
8. Misery 02:50
9. Slum 03:57
10. Ready 02:45
11. Show Me Who You Are 02:58
12. Ice 16:49
******************************
Total playing time: 55:55

(IMG:http://metalarea.org/images/youtube.png)
(IMG:http://metalarea.org/images/youtube.png)

Technical info
(IMG:http://metalarea.org/images/spectrogram/2018_Nov/b6059451c04a59251ca31ffc798f84a7.png)
Input File: 01 Love Me to the Bone.mp3
Channels : 2
Sample Rate : 44100
Precision : 16-bit
Duration : 00:03:54.56 = 10343964 samples = 17591.8 CDDA sectors
File Size : 9.38M
Bit Rate : 320k
Sample Encoding: MPEG audio (layer I, II or III)
Comments :
Title=䰀漀瘀攀 䴀攀 琀漀 琀栀攀 䈀漀渀攀
Artist=䠀愀爀攀
Album=倀爀漀甀搀 琀漀 䈀攀 䰀漀甀搀
Tracknumber=㄀



Register


Go to the top of the page
  Insert nick Quick quote
+Quote Post

Reply to this topicStart new topic
2 User(s) are reading this topic (2 Guests and 0 Anonymous Users)
0 Members:

 



- Lo-Fi Version Support form
Copyrights and abuse reports form
Time is now: 17th November 2018 - 23:06:48