Welcome Guest ( Log In | Register )

> Releases Upload / Добавление релизов

Добавить релиз тут / Click here to add release
Рекомендованные обменники / Recommended file shares

 
Reply to this topicStart new topic
> Hare - Nuclearkarma (1998), Alternative/Groove Metal
post Nov 8 2018, 19:19:32
Post #1

Девять Литров
*********
Group: Металариец
Posts: 911
Releases: 50
On Forums: 11 years 8 months
Thanks: 759 time(s)
Ukraine


(IMG:http://metalarea.org/images/audiocovers/2018_Nov/acov_tid312748_thumb.jpg)

*Artist: Hare
*Album: Nuclearkarma
*Year: 1998
*Genre: Alternative Metal/Groove Metal
*Country: Switzerland (IMG:http://metalarea.org/forum/style_images/flags/Switzerland.png)
*Format: mp3@CBR320kbps
*Size: 102MB

Tracklist:
1. Waiting 06:16
2. Frozen 06:30
3. Wake Me Up 05:12
4. If Only 06:03
5. Weary 04:57
6. The End Has Come 04:43
7. Introspection 04:24
8. Holy Death 05:56
9. Losing Myself 05:02
10. You Know My Name 04:28
******************************
Total playing time: 53:31

(IMG:http://metalarea.org/images/youtube.png)
(IMG:http://metalarea.org/images/youtube.png)

Technical info
(IMG:http://metalarea.org/images/spectrogram/2018_Nov/2cdc1c5ab6710aeb12ec3ca5a6afb527.png)
Input File: 01 Waiting.mp3
Channels : 2
Sample Rate : 44100
Precision : 16-bit
Duration : 00:06:16.87 = 16620011 samples = 28265.3 CDDA sectors
File Size : 15.1M
Bit Rate : 320k
Sample Encoding: MPEG audio (layer I, II or III)
Comments :
Title=圀愀椀琀椀渀最
Artist=䠀愀爀攀
Album=一甀挀氀攀愀爀欀愀爀洀愀
Tracknumber=㄀



Register


Go to the top of the page
  Insert nick Quick quote
+Quote Post

Reply to this topicStart new topic
1 User(s) are reading this topic (1 Guests and 0 Anonymous Users)
0 Members:

 



- Lo-Fi Version Support form
Copyrights and abuse reports form
Time is now: 19th November 2018 - 23:35:48