Welcome Guest ( Log In | Register )

> Releases Upload / Добавление релизов

Добавить релиз тут / Click here to add release
Рекомендованные обменники / Recommended file shares

> Ærekær - Mmxvii [demo] (2018), Black Metal/Dungeon Synth
post Nov 8 2018, 19:44:47
Post #1

Маньяк
**********
Group: Металариец
Posts: 1,430
Releases: 1115
From: Prešov
On Forums: 4 years 7 months
Thanks: 26275 time(s)
Slovakia


(IMG:http://metalarea.org/images/audiocovers/2018_Nov/acov_tid312749_thumb.jpg)

*Artist: Ærekær
*Album: Mmxvii [demo]
*Year: 2018
*Genre: Black Metal/Dungeon Synth
*Country: Denmark (IMG:http://metalarea.org/forum/style_images/flags/Denmark.png)
*Format: mp3@CBR320kbps
*Size: 5MB

Tracklist:
1. I 03:46
2. II 03:38
3. III 03:27
4. IV 01:27
5. V 04:39
6. VI 05:43
7. VII 03:54
8. VIII 01:23
9. IX 07:52
******************************
Total playing time: 35:49



Extended info
Tour De Garde, tape.


Technical info
(IMG:http://metalarea.org/images/spectrogram/2018_Nov/1022a1a7faea7216962e958ffc934363.png)
Input File: 09. IX.mp3
Channels : 2
Sample Rate : 44100
Precision : 16-bit
Duration : 00:07:52.69 = 20845409 samples = 35451.4 CDDA sectors
File Size : 19.0M
Bit Rate : 322k
Sample Encoding: MPEG audio (layer I, II or III)
Comments :
Title=IX
Artist=Ærekær
Album=MMXVII
Tracknumber=09/09
Year=2018
Genre=Black Metal / Dungeon Synth



Register


Go to the top of the page
  Insert nick Quick quote
+Quote Post
 
Start new topic
Replies (1 - 2)
post Nov 9 2018, 06:46:47
Post #2

De Mysteriis Dom Sathanas
**************
Group: Металариец
Posts: 3,314
Releases: 63
From: Москва
On Forums: 10 years 4 months
Thanks: 2851 time(s)
Russian Federation


Данжеон здесь на первом месте...вокал отсутствует по-моему
Go to the top of the page
  Insert nick Quick quote
+Quote Post
post Nov 10 2018, 10:37:49
Post #3

Group: Подсевший
Posts: 38
Releases: 0
On Forums: 8 years 11 months
Thanks: 2 time(s)
Russian Federation


блек есть
Go to the top of the page
  Insert nick Quick quote
+Quote Post

Reply to this topicStart new topic
1 User(s) are reading this topic (1 Guests and 0 Anonymous Users)
0 Members:

 



- Lo-Fi Version Support form
Copyrights and abuse reports form
Time is now: 19th November 2018 - 22:51:45