Welcome Guest ( Log In | Register )

> Releases Upload / Добавление релизов

Добавить релиз тут / Click here to add release
Рекомендованные обменники / Recommended file shares

> Under Destruction - Deliverance (2018), Melodic Death Metal
post Nov 8 2018, 20:20:58
Post #1

Аннигилятор пивА
Group Icon
Group: V.I.P
Posts: 50,415
Releases: 15653
From: Koenigsberg - TILZIT
On Forums: 12 years 5 months
Thanks: 340138 time(s)
Russian Federation


(IMG:https://metalarea.org/images/audiocovers/2018_Nov/acov_tid312751_thumb.jpg)

*Artist: Under Destruction
*Album: Deliverance
*Year: 2018
*Genre: Melodic Death Metal
*Country: Austria (IMG:https://metalarea.org/forum/style_images/flags/Austria.png)
*Format: mp3@CBR320kbps
*Size: 74MB

Tracklist:
01. The End
02. Abscence Of Light
03. Kult
04. Cleansed From Dust And Ashes
05. Hunters And Prey
06. Mountain
07. Deliverance
******************************
Total playing time: 33:58



Extended info
Daniel: Shouts
David: Lead Guitar
Christopher: Rhytm Guitar
Stefan: Bass
Stefan: Drums



Technical info
(IMG:https://metalarea.org/images/spectrogram/2018_Nov/a364b705f7cd7015e976ed2e2df3820e.png)
Input File: 02. Abscence Of Light.mp3
Channels : 2
Sample Rate : 44100
Precision : 16-bit
Duration : 00:04:09.33 = 10995409 samples = 18699.7 CDDA sectors
File Size : 10.1M
Bit Rate : 323k
Sample Encoding: MPEG audio (layer I, II or III)
Comments :
Title=Abscence Of Light
Artist=Under Destruction
Album=Deliverance
Tracknumber=2
Year=2018
Discnumber=1



Register


Go to the top of the page
  Insert nick Quick quote
+Quote Post
 
Start new topic
Replies (1 - 5)
post Nov 9 2018, 08:22:18
Post #2

Аннигилятор пивА
Group Icon
Group: V.I.P
Posts: 50,415
Releases: 15653
From: Koenigsberg - TILZIT
On Forums: 12 years 5 months
Thanks: 340138 time(s)
Russian Federation


mirror
Register


Thanks:
(1) Ostinato,
Go to the top of the page
  Insert nick Quick quote
+Quote Post
post Nov 9 2018, 10:19:23
Post #3

hearer & reader
**************
Group: Металариец
Posts: 7,141
Releases: 92
From: Moscow
On Forums: 11 years 2 months
Thanks: 6792 time(s)
Russian Federation




Thanks:
(1) DenisKov,
Go to the top of the page
  Insert nick Quick quote
+Quote Post
post Nov 10 2018, 19:02:00
Post #4

Мегаманьяк
***********
Group: Металариец
Posts: 1,635
Releases: 0
From: Dnipro
On Forums: 10 years 4 months
Thanks: 428 time(s)
Ukraine


По крайней мере Ютуб интересен, требуется более глубокое ознакомление.
Go to the top of the page
  Insert nick Quick quote
+Quote Post
post Nov 14 2018, 20:56:33
Post #5

MDM-Thrash Metal
**************
Group: Металариец
Posts: 7,245
Releases: 422
From: Одесса
On Forums: 11 years 3 months
Thanks: 13780 time(s)
Ukraine


ЦИТАТА(isvili @ Nov 10 2018, 22:02:00) *
По крайней мере Ютуб интересен

(IMG:style_emoticons/default/17.gif) Хватило на 4 трека - моднявость+грув...
Go to the top of the page
  Insert nick Quick quote
+Quote Post
post Yesterday, 19:34:51
Post #6

Ъ
**************
Group: Металариец
Posts: 9,267
Releases: 9
On Forums: 9 years 10 months
Thanks: 1775 time(s)
Sweden


Превью скучное и к МДМу приписать бы чего в теги, опять же судя только по треку из превью.
Go to the top of the page
  Insert nick Quick quote
+Quote Post

Reply to this topicStart new topic
1 User(s) are reading this topic (1 Guests and 0 Anonymous Users)
0 Members:

 



- Lo-Fi Version Support form
Copyrights and abuse reports form
Time is now: 19th November 2018 - 22:35:40