Welcome Guest ( Log In | Register )

> Releases Upload / Добавление релизов

Добавить релиз тут / Click here to add release
Рекомендованные обменники / Recommended file shares

> Disparity Gospel - Antechamber Of Abundant Emptiness (2018), Black/Death Metal
post Nov 8 2018, 20:47:53
Post #1

Аннигилятор пивА
Group Icon
Group: V.I.P
Posts: 50,372
Releases: 15638
From: Koenigsberg - TILZIT
On Forums: 12 years 5 months
Thanks: 339683 time(s)
Russian Federation


(IMG:https://metalarea.org/images/audiocovers/2018_Nov/acov_tid312752_thumb.jpg)

*Artist: Disparity Gospel
*Album: Antechamber Of Abundant Emptiness
*Year: 2018
*Genre: Black/Death Metal
*Country: United States (IMG:https://metalarea.org/forum/style_images/flags/United%20States.png)
*Format: mp3@CBR320kbps
*Size: 87MB

Tracklist:
1. Transient Bloodcurse
2. Centrifugal Flagellant
3. Dissect The Hand
4. Super Predator Total Killer
5. The Bones Have Reversed Themselves
6. Primordial Gestation
7. Altar Beast
******************************
Total playing time: 38:17



Extended info
Jeremie White - Guitar
Duncan McDuffIe - Guitar/Vocals
Charles Hesting - Bass
James Plumlee - Drums, OUTROS: guitar, bass & synth


Technical info
(IMG:https://metalarea.org/images/spectrogram/2018_Nov/f793a65f1039ecd889e1badaf565e756.png)
Input File: 02 Centrifugal Flagellant.mp3
Channels : 2
Sample Rate : 44100
Precision : 16-bit
Duration : 00:04:16.20 = 11298420 samples = 19215 CDDA sectors
File Size : 10.4M
Bit Rate : 324k
Sample Encoding: MPEG audio (layer I, II or III)
Comments :
Title=Centrifugal Flagellant
Artist=Disparity Gospel
Album=Antechamber Of Abundant Emptiness
Tracknumber=2/7
Year=2018
Genre=Black/Death Metal
Discnumber=1/1



Register


Go to the top of the page
  Insert nick Quick quote
+Quote Post
 
Start new topic
Replies (1 - 2)
post Nov 9 2018, 08:19:21
Post #2

Аннигилятор пивА
Group Icon
Group: V.I.P
Posts: 50,372
Releases: 15638
From: Koenigsberg - TILZIT
On Forums: 12 years 5 months
Thanks: 339683 time(s)
Russian Federation


MIRROR
Register


Thanks:
(1) Ostinato,
Go to the top of the page
  Insert nick Quick quote
+Quote Post
post Nov 10 2018, 18:58:22
Post #3

Мегаманьяк
***********
Group: Металариец
Posts: 1,612
Releases: 0
From: Dnipro
On Forums: 10 years 4 months
Thanks: 424 time(s)
Ukraine


Вот именно такой не тупой и продуманный Black/Death Metal мне нравится (IMG:style_emoticons/default/20.gif)
Go to the top of the page
  Insert nick Quick quote
+Quote Post

Reply to this topicStart new topic
2 User(s) are reading this topic (2 Guests and 0 Anonymous Users)
0 Members:

 



- Lo-Fi Version Support form
Copyrights and abuse reports form
Time is now: 17th November 2018 - 22:07:51