Welcome Guest ( Log In | Register )

> Releases Upload / Добавление релизов

Добавить релиз тут / Click here to add release
Рекомендованные обменники / Recommended file shares

> Mastemath - Schizophrenic (2018), Blackened Death Metal
post Nov 8 2018, 21:05:22
Post #1

Правь статус, ####!111
**************
Group: Металариец
Posts: 15,001
Releases: 10277
From: Г.Харьков
On Forums: 6 years 6 months
Thanks: 169688 time(s)
Unknown


(IMG:http://metalarea.org/images/audiocovers/2018_Nov/acov_tid312753_thumb.jpg)

*Artist: Mastemath
*Album: Schizophrenic
*Year: 2018
*Genre: Blackened Death Metal
*Country: Russian Federation (IMG:http://metalarea.org/forum/style_images/flags/Russian%20Federation.png)
*Format: mp3@CBR320kbps
*Size: 132MB

Tracklist:
01. Destruction Of The World 04:43
02. Dad Is Dead 05:15
03. Tertium Key 06:29
04. Way To The Grave 08:40
05. Thriving Rot 02:54
06. Sinister Death 06:04
07. Man In A Leather Apron 07:43
08. S.O.D.O.M. 04:57
09. Radicality 08:26
10. Schizophrenic 03:43
11. Sweet Lobotomy (Avulsed Cover) 04:02
******************************
Total playing time: 1:02:56




Extended info
George - Guitar/Vocal
Eugene. - Guitar
Andrew - Drums
Elijah - Bass


Technical info
(IMG:http://metalarea.org/images/spectrogram/2018_Nov/e14e4f225a2e438e2bd51c8dd324b7b5.png)
Input File: 03. Tertium Key.mp3
Channels : 2
Sample Rate : 44100
Precision : 16-bit
Duration : 00:06:29.28 = 17167028 samples = 29195.6 CDDA sectors
File Size : 15.6M
Bit Rate : 321k
Sample Encoding: MPEG audio (layer I, II or III)
Comments :
Title=Tertium Key
Artist=Mastemath
Album=Schizophrenic
Tracknumber=3
Year=2018
Discnumber=1



Register


Go to the top of the page
  Insert nick Quick quote
+Quote Post
 
Start new topic
Replies (1 - 2)
post Nov 9 2018, 03:27:20
Post #2

Правь статус, ####!111
**************
Group: Металариец
Posts: 15,001
Releases: 10277
From: Г.Харьков
On Forums: 6 years 6 months
Thanks: 169688 time(s)
Unknown


Cloud Mail 320
Register


Thanks:
Go to the top of the page
  Insert nick Quick quote
+Quote Post
post Nov 10 2018, 18:54:36
Post #3

Мегаманьяк
***********
Group: Металариец
Posts: 1,635
Releases: 0
From: Dnipro
On Forums: 10 years 4 months
Thanks: 428 time(s)
Ukraine


Не шедевр, но достаточно занятный альбомчик. Соляки и мелодии присутствуют.
Go to the top of the page
  Insert nick Quick quote
+Quote Post

Reply to this topicStart new topic
2 User(s) are reading this topic (2 Guests and 0 Anonymous Users)
0 Members:

 



- Lo-Fi Version Support form
Copyrights and abuse reports form
Time is now: 19th November 2018 - 23:28:24