Welcome Guest ( Log In | Register )

> Releases Upload / Добавление релизов

Добавить релиз тут / Click here to add release
Рекомендованные обменники / Recommended file shares

> Dire Peril - The Extraterrestrial Compendium (2018), Heavy/Power/Thrash Metal (D4)
post Nov 8 2018, 21:06:49
Post #1

Аннигилятор пивА
Group Icon
Group: V.I.P
Posts: 50,372
Releases: 15638
From: Koenigsberg - TILZIT
On Forums: 12 years 5 months
Thanks: 339715 time(s)
Russian Federation


(IMG:http://metalarea.org/images/audiocovers/2018_Nov/acov_tid312754_thumb.jpg)

*Artist: Dire Peril
*Album: The Extraterrestrial Compendium
*Year: 2018
*Genre: Heavy/Power/Thrash Metal
*Country: United States (IMG:http://metalarea.org/forum/style_images/flags/United%20States.png)
*Format: mp3@CBR320kbps
*Size: 154MB

Tracklist:
01. Yautja (Hunter Culture)
02. Planet Preservation
03. Enemy Mine
04. The Visitor
05. Total Recall
06. Queen Of The Galaxy
07. Roughnecks
08. Blood In The Ice
09. Heart Of The Furyan
10. Altair IV: The Forbidden Planet
11. Always Right Here
12. Journey Beyond The Stars
******************************
Total playing time: 1:06:01



Extended info
Dire Peril:
Jason Ashcraft: Guitars
John Yelland: Vocals

Guest Musicians:
Arjen Anthony Lucassen: Vocals and Guitar Solo on "Journey Beyond the Stars"
Brittney Slayes: Vocals on "Queen of the Galaxy"
Justin Tvetan: Drums
Carlos Alvarez: Lead Guitars,Third Solo on "Enemy Mine", First Solo on "Always Right Here"
Christian Muenzner: Second Solo on "Always Right Here"
Taylor Washington: All other guitar solos
Austin Bentley: All strings and orchestrations


Technical info
(IMG:http://metalarea.org/images/spectrogram/2018_Nov/1f304ebe4c3bd3e0696ab2abecfce1fe.png)
Input File: 02. Planet Preservation.mp3
Channels : 2
Sample Rate : 44100
Precision : 16-bit
Duration : 00:04:24.17 = 11649809 samples = 19812.6 CDDA sectors
File Size : 10.8M
Bit Rate : 328k
Sample Encoding: MPEG audio (layer I, II or III)
Comments :
Title=Planet Preservation
Artist=Dire Peril
Album=The Extraterrestrial Compendium
Tracknumber=2/12
Year=2018
Discnumber=1/1



Register


Go to the top of the page
  Insert nick Quick quote
+Quote Post
 
Start new topic
Replies (1 - 2)
post Nov 9 2018, 08:21:30
Post #2

Аннигилятор пивА
Group Icon
Group: V.I.P
Posts: 50,372
Releases: 15638
From: Koenigsberg - TILZIT
On Forums: 12 years 5 months
Thanks: 339715 time(s)
Russian Federation


mirror
Register


Thanks:
(2) eyes0re, gwar,
Go to the top of the page
  Insert nick Quick quote
+Quote Post
post Nov 11 2018, 16:22:13
Post #3


********
Group: Металариец
Posts: 832
Releases: 83
From: Москва/Моск. обл
On Forums: 11 years 1 month
Thanks: 2495 time(s)
Russian Federation


Йелланд, конечно, хорошо, но мне не очень по душе. Все-таки Дисфория наиболее удачный проект с его участием, по-моему.
Go to the top of the page
  Insert nick Quick quote
+Quote Post

Reply to this topicStart new topic
1 User(s) are reading this topic (1 Guests and 0 Anonymous Users)
0 Members:

 



- Lo-Fi Version Support form
Copyrights and abuse reports form
Time is now: 17th November 2018 - 23:08:34