Welcome Guest ( Log In | Register )

> Releases Upload / Добавление релизов

Добавить релиз тут / Click here to add release
Рекомендованные обменники / Recommended file shares

> Flowerleaf - Stronger (2018), Symphonic/Power Metal
post Nov 8 2018, 21:16:42
Post #1

Аннигилятор пивА
Group Icon
Group: V.I.P
Posts: 50,415
Releases: 15653
From: Koenigsberg - TILZIT
On Forums: 12 years 5 months
Thanks: 340139 time(s)
Russian Federation


(IMG:https://metalarea.org/images/audiocovers/2018_Nov/acov_tid312755_thumb.jpg)

*Artist: Flowerleaf
*Album: Stronger
*Year: 2018
*Genre: Symphonic/Power Metal
*Country: United States (IMG:https://metalarea.org/forum/style_images/flags/United%20States.png)
*Format: mp3@CBR320kbps
*Size: 101MB

Tracklist:
01. Paralysis
02. Firesoul
03. Grain of Sand
04. Not My Fault (feat. Mylena Monaco)
05. Girl in Pearls
06. Tupana
07. Rise Again
08. Desert Winds
09. The Flower and the Leaf
10. We Will Stand (feat. Marina La Torraca)
******************************
Total playing time: 41:16



Extended info


Technical info
(IMG:https://metalarea.org/images/spectrogram/2018_Nov/3d402ab547cde045446a5f296960b6ed.png)
Input File: 03. Grain of Sand.mp3
Channels : 2
Sample Rate : 44100
Precision : 16-bit
Duration : 00:04:01.07 = 10631363 samples = 18080.5 CDDA sectors
File Size : 10.2M
Bit Rate : 339k
Sample Encoding: MPEG audio (layer I, II or III)
Comments :
Title=Grain of Sand
Artist=Flowerleaf
Album=Stronger
Tracknumber=3/10
Year=2018
Discnumber=1/1



Register


Go to the top of the page
  Insert nick Quick quote
+Quote Post
 
Start new topic
Replies (1 - 3)
post Nov 9 2018, 09:41:11
Post #2

hearer & reader
**************
Group: Металариец
Posts: 7,141
Releases: 92
From: Moscow
On Forums: 11 years 2 months
Thanks: 6792 time(s)
Russian Federation


Под превьюху надо ещё один "Титаник" утопить..
Go to the top of the page
  Insert nick Quick quote
+Quote Post
post Nov 12 2018, 00:11:07
Post #3

Маньяк
**********
Group: Металариец
Posts: 1,312
Releases: 5
From: Нью-Васюки
On Forums: 12 years 6 months
Thanks: 374 time(s)
Russian Federation


ЦИТАТА(AHBAnep @ Nov 9 2018, 10:41:11) *
Под превьюху надо ещё один "Титаник" утопить..

причем вместе с этой группой
Go to the top of the page
  Insert nick Quick quote
+Quote Post
post Yesterday, 19:29:05
Post #4

Ъ
**************
Group: Металариец
Posts: 9,267
Releases: 9
On Forums: 9 years 10 months
Thanks: 1775 time(s)
Sweden


ЦИТАТА(AHBAnep @ Nov 9 2018, 15:41:11) *
Под превьюху надо ещё один "Титаник" утопить..

ЦИТАТА(Darkness @ Nov 12 2018, 06:11:07) *
причем вместе с этой группой


Этих групп...на всех Титаников не хватит (IMG:style_emoticons/default/1488.gif)
Go to the top of the page
  Insert nick Quick quote
+Quote Post

Reply to this topicStart new topic
1 User(s) are reading this topic (1 Guests and 0 Anonymous Users)
0 Members:

 



- Lo-Fi Version Support form
Copyrights and abuse reports form
Time is now: 19th November 2018 - 22:49:12