Welcome Guest ( Log In | Register )

> Releases Upload / Добавление релизов

Добавить релиз тут / Click here to add release
Рекомендованные обменники / Recommended file shares

> Myopic - Myopic (2018), Black/Death/Doom Metal/Sludge (D5)
post Nov 8 2018, 21:32:13
Post #1

Аннигилятор пивА
Group Icon
Group: V.I.P
Posts: 50,372
Releases: 15638
From: Koenigsberg - TILZIT
On Forums: 12 years 5 months
Thanks: 339706 time(s)
Russian Federation


(IMG:http://metalarea.org/images/audiocovers/2018_Nov/acov_tid312757_thumb.jpg)

*Artist: Myopic
*Album: Myopic
*Year: 2018
*Genre: Black/Death/Doom Metal/Sludge
*Country: United States (IMG:http://metalarea.org/forum/style_images/flags/United%20States.png)
*Format: mp3@CBR320kbps
*Size: 133MB

Tracklist:
1. Intro 01:04
2. Earth's Mantle 08:40
3. Onward 03:47
4. Husk of a Man 07:47
5. In Exile 12:56
6. Pillars of Time 07:04
7. Swallowing Depths 06:49
8. Resting Place 07:42
******************************
Total playing time: 55:49


Preview 2

Extended info
Sean Simmons - Guitar/Vocals
Nick Leonard - Bass/Vocals
Michael Brown - Drums


Technical info
(IMG:http://metalarea.org/images/spectrogram/2018_Nov/a342adb445e60d676f32f13d558d90f5.png)
Input File: 03. Onward.mp3
Channels : 2
Sample Rate : 44100
Precision : 16-bit
Duration : 00:03:46.63 = 9994251 samples = 16997 CDDA sectors
File Size : 9.32M
Bit Rate : 329k
Sample Encoding: MPEG audio (layer I, II or III)
Comments :
Title=Onward
Artist=myopic
Album=Myopic
Tracknumber=3/8
Year=2018
Discnumber=1/1



Register


Go to the top of the page
  Insert nick Quick quote
+Quote Post
 
Start new topic
Replies (1 - 1)
post Nov 11 2018, 11:54:37
Post #2

ME[ta]LLOMAN
**************
Group: Металариец
Posts: 4,873
Releases: 3
From: Hughes'sRegion\Avdeyevka
On Forums: 12 years 7 months
Thanks: 1772 time(s)
Honduras


preview
Go to the top of the page
  Insert nick Quick quote
+Quote Post

Reply to this topicStart new topic
1 User(s) are reading this topic (1 Guests and 0 Anonymous Users)
0 Members:

 



- Lo-Fi Version Support form
Copyrights and abuse reports form
Time is now: 17th November 2018 - 22:32:37