Welcome Guest ( Log In | Register )

> Releases Upload / Добавление релизов

Добавить релиз тут / Click here to add release
Рекомендованные обменники / Recommended file shares

 
Reply to this topicStart new topic
> Hex A.D. - Netherworld Triumphant (2018), Progressive Doom Metal
post Nov 8 2018, 21:35:38
Post #1

Правь статус, ####!111
**************
Group: Металариец
Posts: 14,984
Releases: 10266
From: Г.Харьков
On Forums: 6 years 6 months
Thanks: 169426 time(s)
Unknown


(IMG:http://metalarea.org/images/audiocovers/2018_Nov/acov_tid312758_thumb.jpg)

*Artist: Hex A.D.
*Album: Netherworld Triumphant
*Year: 2018
*Genre: Progressive Doom Metal
*Country: Norway (IMG:http://metalarea.org/forum/style_images/flags/Norway.png)
*Format: mp3@CBR320kbps
*Size: 114MB

Tracklist:
01. Himmelskare 02:35
02. Skeleton Key, Skeleton Hand 06:04
03. Netherworld Triumphant Pt. I 07:15
04. Netherworld Triumphant Pt. II 04:26
05. WarChild 08:06
06. Boars On Spears 07:39
07. Ladders To Fire 13:35
******************************
Total playing time: 49:40



Extended info
Rick Hagan Drums, Vocals
See also: Paul Di'Anno (live), ex-Absolute Steel, ex-Blaze Bayley (live), ex-Tim Ripper Owens (live), ex-Sarcoma Inc. (live)
Mags Johansen Unknown
See also: ex-MirrorFall
Are Gogstad Unknown
See also: ex-Blaze Bayley (live), ex-Paul Di'Anno (live), ex-Tim Ripper Owens (live)
Matt Hagan Unknown


Technical info
(IMG:http://metalarea.org/images/spectrogram/2018_Nov/98e2a0ddc92e6737ae693a92403dec2a.png)
Input File: 03. Netherworld Triumphant Pt. I.mp3
Channels : 2
Sample Rate : 44100
Precision : 16-bit
Duration : 00:07:15.59 = 19209651 samples = 32669.5 CDDA sectors
File Size : 17.5M
Bit Rate : 322k
Sample Encoding: MPEG audio (layer I, II or III)
Comments :
Title=Netherworld Triumphant Pt. I
Artist=Hex A.D.
Album=Netherworld Triumphant
Tracknumber=3
Year=2018
Genre=Metal



Register


Go to the top of the page
  Insert nick Quick quote
+Quote Post

Reply to this topicStart new topic
2 User(s) are reading this topic (2 Guests and 0 Anonymous Users)
0 Members:

 



- Lo-Fi Version Support form
Copyrights and abuse reports form
Time is now: 17th November 2018 - 22:38:24