Welcome Guest ( Log In | Register )

> Releases Upload / Добавление релизов

Добавить релиз тут / Click here to add release
Рекомендованные обменники / Recommended file shares

 
Reply to this topicStart new topic
> Odds N' Sods - Regeneration [demo] (1993), Thrash Metal
post Nov 8 2018, 21:40:42
Post #1

Три Литра
***
Group: Завсегдатай
Posts: 249
Releases: 148
On Forums: 9 years 8 months
Thanks: 1365 time(s)
Russian Federation


(IMG:https://metalarea.org/images/audiocovers/2018_Nov/acov_tid312759_thumb.jpg)

*Artist: Odds N' Sods
*Album: Regeneration [demo]
*Year: 1993
*Genre: Thrash Metal
*Country: Hungary (IMG:https://metalarea.org/forum/style_images/flags/Hungary.png)
*Format: mp3@CBR320kbps
*Size: 58MB

Tracklist:
01. Regeneration (Instrumental) 03:46
02. The Execution 03:26
03. Life 04:31
04. No Need For Future 03:35
05. Murderous Money 02:32
06. Innocently 03:55
07. You Live For Me 03:58
******************************
Total playing time: 25:43

Extended info
Tape-rip. Rare!

Róbert Boros - bass, vocals
Zsolt Péter - guitar
László Zavarkó - drums


Technical info
(IMG:https://metalarea.org/images/spectrogram/2018_Nov/3bae5a9185406a747307382499d862a8.png)
Input File: 01 - Regeneration.mp3
Channels : 2
Sample Rate : 44100
Precision : 16-bit
Duration : 00:03:46.28 = 9978904 samples = 16970.9 CDDA sectors
File Size : 9.05M
Bit Rate : 320k
Sample Encoding: MPEG audio (layer I, II or III)
Comments :
Title=Regeneration
Artist=ODDS N' SODS
Album=Regeneration /Demo/
Tracknumber=1
Year=1993



Register


Go to the top of the page
  Insert nick Quick quote
+Quote Post

Reply to this topicStart new topic
2 User(s) are reading this topic (2 Guests and 0 Anonymous Users)
0 Members:

 



- Lo-Fi Version Support form
Copyrights and abuse reports form
Time is now: 17th November 2018 - 22:07:21