Welcome Guest ( Log In | Register )

> Releases Upload / Добавление релизов

Добавить релиз тут / Click here to add release
Рекомендованные обменники / Recommended file shares

> Cathexia - Complete Obliteration (2018), Old School Death Metal
post Nov 8 2018, 22:40:50
Post #1

Правь статус, ####!111
**************
Group: Металариец
Posts: 14,984
Releases: 10266
From: Г.Харьков
On Forums: 6 years 6 months
Thanks: 169413 time(s)
Unknown


(IMG:http://metalarea.org/images/audiocovers/2018_Nov/acov_tid312761_thumb.jpg)

*Artist: Cathexia
*Album: Complete Obliteration
*Year: 2018
*Genre: Old School Death Metal
*Country: Spain (IMG:http://metalarea.org/forum/style_images/flags/Spain.png)
*Format: mp3@CBR320kbps
*Size: 71MB

Tracklist:
1. Fall of the Unholy Race 01:40
2. Entrails of the Earth 02:39
3. No Rest Beyond Death 04:35
4. Blessing/Extermination 04:00
5. Eternal Slavery 03:39
6. Rebellion is Growing 04:11
7. Mankind's Obliteration 03:57
8. Virus 04:26
9. Inert 04:20
******************************
Total playing time: 33:27




Extended info
Javier Cosmea Guitars
See also: Thirteen Bled Promises, Aversio Humanitatis (live), Legacy of Brutality (live), ex-Edoneh, ex-Sound of Silence (live)
Javi Drums (2011-present)
See also: Legacy of Brutality, ex-The Last Twilight, ex-Sound of Silence, ex-Replica (live), ex-Stigmata
Lalo Bass (2013-present)
See also: Legacy of Brutality
Abel Suárez Vocals (2014-present)
See also: Replica, Rise of Fury, ex-Legacy of Brutality (live)
Darío Urbistondo Guitars (2018-present)
See also: Thirteen Bled Promises


Technical info
(IMG:http://metalarea.org/images/spectrogram/2018_Nov/b24509e306dcfdc6c39773cbe4710b48.png)
Input File: 03. No Rest Beyond Death.mp3
Channels : 2
Sample Rate : 44100
Precision : 16-bit
Duration : 00:04:35.56 = 12152108 samples = 20666.9 CDDA sectors
File Size : 11.1M
Bit Rate : 323k
Sample Encoding: MPEG audio (layer I, II or III)
Comments :
Title=No Rest Beyond Death
Artist=Cathexia
Album=Complete Obliteration
Tracknumber=3
Year=2018
Discnumber=1



Register


Go to the top of the page
  Insert nick Quick quote
+Quote Post
 
Start new topic
Replies (1 - 3)
post Nov 9 2018, 03:23:47
Post #2

Правь статус, ####!111
**************
Group: Металариец
Posts: 14,984
Releases: 10266
From: Г.Харьков
On Forums: 6 years 6 months
Thanks: 169413 time(s)
Unknown


Cloud Mail 320
Register


Thanks:
Go to the top of the page
  Insert nick Quick quote
+Quote Post
post Nov 9 2018, 06:50:38
Post #3

Crush! Kill! Destroy!
**************
Group: Металариец
Posts: 4,681
Releases: 15
From: Kaliningrad
On Forums: 11 years 21 hours
Thanks: 4328 time(s)
Russian Federation


Шустро наваливают, с огоньком! Упертым (в хорошем смысле этого слова) любителям олдскула должно однозначно зайти.


Thanks:
Go to the top of the page
  Insert nick Quick quote
+Quote Post
post Nov 10 2018, 18:51:22
Post #4

Мегаманьяк
***********
Group: Металариец
Posts: 1,612
Releases: 0
From: Dnipro
On Forums: 10 years 4 months
Thanks: 424 time(s)
Ukraine


ЦИТАТА(Dmitry1977 @ Nov 9 2018, 07:50:38) *
Шустро наваливают, с огоньком! Упертым (в хорошем смысле этого слова) любителям олдскула должно однозначно зайти.

Это да, при прослушивании этого альбома скучать некогда будет (IMG:style_emoticons/default/1488.gif)
Go to the top of the page
  Insert nick Quick quote
+Quote Post

Reply to this topicStart new topic
1 User(s) are reading this topic (1 Guests and 0 Anonymous Users)
0 Members:

 



- Lo-Fi Version Support form
Copyrights and abuse reports form
Time is now: 17th November 2018 - 22:19:46