Welcome Guest ( Log In | Register )

> Releases Upload / Добавление релизов

Добавить релиз тут / Click here to add release
Рекомендованные обменники / Recommended file shares

 
Reply to this topicStart new topic
> Architects - Holy Hell (2018), Metalcore/Post-Hardcore (D9)
post Nov 8 2018, 23:06:55
Post #1

Правь статус, ####!111
**************
Group: Металариец
Posts: 34,584
Releases: 504
On Forums: 9 years 5 months
Thanks: 26697 time(s)
Russian Federation


(IMG:http://metalarea.org/images/audiocovers/2018_Nov/acov_tid312762_thumb.jpg)

*Artist: Architects
*Album: Holy Hell
*Year: 2018
*Genre: Metalcore/Post-Hardcore
*Country: United Kingdom (IMG:http://metalarea.org/forum/style_images/flags/United%20Kingdom.png)
*Format: mp3@CBR320kbps
*Size: 104MB

Tracklist:
01. Death Is Not Defeat
02. Hereafter
03. Mortal After All
04. Holy Hell
05. Damnation
06. Royal Beggars
07. Modern Misery
08. Dying to Heal
09. The Seventh Circle
10. Doomsday
11. A Wasted Hymn
******************************
Total playing time: 42:41

Technical info
(IMG:http://metalarea.org/images/spectrogram/2018_Nov/e32225f9832670c9cc23c5319d808836.png)
Input File: 01. Death Is Not Defeat.mp3
Channels : 2
Sample Rate : 44100
Precision : 16-bit
Duration : 00:03:45.11 = 9927307 samples = 16883.2 CDDA sectors
File Size : 9.69M
Bit Rate : 344k
Sample Encoding: MPEG audio (layer I, II or III)
Comments :
Title=Death Is Not Defeat
Artist=Architects
Album=Holy Hell
Tracknumber=1/11
Year=2018
Discnumber=1/1



Register


Go to the top of the page
  Insert nick Quick quote
+Quote Post

Reply to this topicStart new topic
1 User(s) are reading this topic (1 Guests and 0 Anonymous Users)
0 Members:

 



- Lo-Fi Version Support form
Copyrights and abuse reports form
Time is now: 17th November 2018 - 23:16:35