Welcome Guest ( Log In | Register )

> Releases Upload / Добавление релизов

Добавить релиз тут / Click here to add release
Рекомендованные обменники / Recommended file shares

> Ulthar - Cosmovore (2018), Death Metal
post Nov 8 2018, 23:08:52
Post #1

Правь статус, ####!111
**************
Group: Металариец
Posts: 14,984
Releases: 10266
From: Г.Харьков
On Forums: 6 years 6 months
Thanks: 169419 time(s)
Unknown


(IMG:http://metalarea.org/images/audiocovers/2018_Nov/acov_tid312763_thumb.jpg)

*Artist: Ulthar
*Album: Cosmovore
*Year: 2018
*Genre: Death Metal
*Country: United States (IMG:http://metalarea.org/forum/style_images/flags/United%20States.png)
*Format: mp3@CBR320kbps
*Size: 103MB

Tracklist:
1. Cosmovore 05:06
2. Solitarian 04:08
3. Infinite Cold Distance 05:18
4. Entropy-Atrophy 04:46
5. Asymmetric Warfare 05:27
6. Dunwich Whore 13:26
******************************
Total playing time: 38:11

Preview 1


Extended info
Steve Peacock Bass, Vocals (2014-present)
See also: Asubha, Mastery, Pale Chalice, Pandiscordian Necrogenesis, ex-Horn of Dagoth, Apprentice Destroyer
Justin Ennis Drums (2014-present)
See also: Ruine, Vale, Void Omnia, ex-Mutilation Rites, ex-Tombs, ex-The Heuristic
Shelby Lermo Guitars, Vocals (2014-present)
See also: Extremity, Vastum, Palace of Worms (live), ex-Apocryphon, ex-Cretaceous, ex-Hideous, Apprentice Destroyer (live), ex-Dalton, ex-Womanowar, ex-Tony Molina Band (live)


Technical info
(IMG:http://metalarea.org/images/spectrogram/2018_Nov/b141093ab3fa476334bef4b90c4032ac.png)
Input File: 02 Solitarian.mp3
Channels : 2
Sample Rate : 44100
Precision : 16-bit
Duration : 00:04:07.71 = 10923967 samples = 18578.2 CDDA sectors
File Size : 12.4M
Bit Rate : 401k
Sample Encoding: MPEG audio (layer I, II or III)
Comments :
Title=Solitarian
Artist=Ulthar
Album=Cosmovore
Tracknumber=2/6
Year=2018
Genre=Death Metal
Discnumber=1/1



Register


Go to the top of the page
  Insert nick Quick quote
+Quote Post
 
Start new topic
Replies (1 - 3)
post Nov 9 2018, 03:34:59
Post #2

Правь статус, ####!111
**************
Group: Металариец
Posts: 14,984
Releases: 10266
From: Г.Харьков
On Forums: 6 years 6 months
Thanks: 169419 time(s)
Unknown


Cloud Mail 320
Register


Go to the top of the page
  Insert nick Quick quote
+Quote Post
post Nov 9 2018, 07:43:43
Post #3

кручу наждак
**************
Group: Металариец
Posts: 3,500
Releases: 91
From: Самара
On Forums: 8 years 6 months
Thanks: 2625 time(s)
Russian Federation


Бессмысленный набор звуков, облеченный в форму блэкодэта. В мусор.
Go to the top of the page
  Insert nick Quick quote
+Quote Post
post Nov 9 2018, 09:21:41
Post #4

hearer & reader
**************
Group: Металариец
Posts: 7,132
Releases: 91
From: Moscow
On Forums: 11 years 2 months
Thanks: 6777 time(s)
Russian Federation


А вроде, и неплохой блэкодес, хорошо льётся. Ну, бессмысленность - штука относительная.
И тут гитарист Vastum...


Thanks:
Go to the top of the page
  Insert nick Quick quote
+Quote Post

Reply to this topicStart new topic
1 User(s) are reading this topic (1 Guests and 0 Anonymous Users)
0 Members:

 



- Lo-Fi Version Support form
Copyrights and abuse reports form
Time is now: 17th November 2018 - 22:29:54