Welcome Guest ( Log In | Register )

> Releases Upload / Добавление релизов

Добавить релиз тут / Click here to add release
Рекомендованные обменники / Recommended file shares

 
Reply to this topicStart new topic
> Cuero Chancho - Cromosomas De Un Demente [ep] (2018), Death/Groove Metal
post Nov 8 2018, 23:48:57
Post #1

Правь статус, ####!111
**************
Group: Металариец
Posts: 15,001
Releases: 10277
From: Г.Харьков
On Forums: 6 years 6 months
Thanks: 169683 time(s)
Unknown


(IMG:http://metalarea.org/images/audiocovers/2018_Nov/acov_tid312764_thumb.jpg)

*Artist: Cuero Chancho
*Album: Cromosomas De Un Demente [ep]
*Year: 2018
*Genre: Death/Groove Metal
*Country: Chile (IMG:http://metalarea.org/forum/style_images/flags/Chile.png)
*Format: mp3@CBR320kbps
*Size: 51MB

Tracklist:
1. Intro 02:20
2. MC-96 03:08
3. Esclavocracia 02:37
4. Holocausto 03:34
5. Cromosomas de un demente 04:05
6. Hecatombe 03:07
7. 1000 años 04:07
******************************
Total playing time: 22:58




Extended info
Female vocal
Pierre Oehncker Bass (2017-present)
See also: Democidio
Sebastian Osiris Reyes Drums (2017-present)
Miguel Di Vicenzi Guitars (2017-present)
See also: Democidio, Extracorporeal Disgorge, ex-Cesio
Lilith Ose Vocals (2018-present)


Technical info
(IMG:http://metalarea.org/images/spectrogram/2018_Nov/d91450675de9548f2a79ded0860150e9.png)
Input File: 04 - Holocausto.mp3
Channels : 2
Sample Rate : 44100
Precision : 16-bit
Duration : 00:03:24.77 = 9030489 samples = 15358 CDDA sectors
File Size : 8.19M
Bit Rate : 320k
Sample Encoding: MPEG audio (layer I, II or III)
Comments :
Title=Holocausto
Artist=Cuero Chancho
Album=Cromosomas de un Demente
Tracknumber=4
Year=2018
Genre=Death Metal



Register


Go to the top of the page
  Insert nick Quick quote
+Quote Post

Reply to this topicStart new topic
1 User(s) are reading this topic (1 Guests and 0 Anonymous Users)
0 Members:

 



- Lo-Fi Version Support form
Copyrights and abuse reports form
Time is now: 19th November 2018 - 22:34:57