Welcome Guest ( Log In | Register )

> Releases Upload / Добавление релизов

Добавить релиз тут / Click here to add release
Рекомендованные обменники / Recommended file shares

 
Reply to this topicStart new topic
> Zord - Peripheria (2018), Groove/Thrash Metal
post Nov 9 2018, 01:53:50
Post #1

Правь статус, ####!111
**************
Group: Металариец
Posts: 14,983
Releases: 10266
From: Г.Харьков
On Forums: 6 years 6 months
Thanks: 169406 time(s)
Unknown


(IMG:http://metalarea.org/images/audiocovers/2018_Nov/acov_tid312765_thumb.jpg)

*Artist: Zord
*Album: Peripheria
*Year: 2018
*Genre: Groove/Thrash Metal
*Country: Hungary (IMG:http://metalarea.org/forum/style_images/flags/Hungary.png)
*Format: mp3@CBR320kbps
*Size: 95MB

Tracklist:
1. Wry
2. Peripheria
3. Blue Hatred Cacophony
4. Villainy
5. Parasite Hatchery
6. H-Mob
7. Expulsion
8. Dread and Cruelty Thrive
9. Rarity Maker
10. Walls Grow Again
******************************
Total playing time: 38:17


Preview 2

Extended info
Attila Csibi Drums
See also: Atomic, ex-Lepillantóküllő
Dénes Perényi Guitars, Vocals (backing)
See also: Almighty, Atomic, ex-Catheter, ex-Akela
Róbert Kis Guitars, Vocals (backing)
See also: ex-Flegeton, ex-Whaka Danger, ex-Frommer Baby, ex-La Giralda, ex-Subconscious
Péter Rabcsák Bass (2011-present)
Krisztián Soltész-Nagy Vocals (2011-present)
See also: ex-Eclipse, ex-Blekcsimbók, ex-Spasm


Technical info
(IMG:http://metalarea.org/images/spectrogram/2018_Nov/43fa46d87bba776c8226496470f2006f.png)
Input File: 03 Blue Hatred Cacophony.mp3
Channels : 2
Sample Rate : 44100
Precision : 16-bit
Duration : 00:04:03.66 = 10745406 samples = 18274.5 CDDA sectors
File Size : 10.5M
Bit Rate : 345k
Sample Encoding: MPEG audio (layer I, II or III)
Comments :
Title=Blue Hatred Cacophony
Artist=Zord
Album=Peripheria
Tracknumber=3/10
Year=2018
Genre=Thrash Metal
Discnumber=1/1



Register


Go to the top of the page
  Insert nick Quick quote
+Quote Post

Reply to this topicStart new topic
2 User(s) are reading this topic (2 Guests and 0 Anonymous Users)
0 Members:

 



- Lo-Fi Version Support form
Copyrights and abuse reports form
Time is now: 17th November 2018 - 22:07:09