Welcome Guest ( Log In | Register )

> Releases Upload / Добавление релизов

Добавить релиз тут / Click here to add release
Рекомендованные обменники / Recommended file shares

> Thorium - Thorium (2018), Heavy Metal (D6)
post Nov 9 2018, 02:16:38
Post #1

Правь статус, ####!111
**************
Group: Металариец
Posts: 15,001
Releases: 10277
From: Г.Харьков
On Forums: 6 years 6 months
Thanks: 169683 time(s)
Unknown


(IMG:http://metalarea.org/images/audiocovers/2018_Nov/acov_tid312766_thumb.jpg)

*Artist: Thorium
*Album: Thorium
*Year: 2018
*Genre: Heavy Metal
*Country: Belgium (IMG:http://metalarea.org/forum/style_images/flags/Belgium.png)
*Format: mp3@CBR320kbps
*Size: 106MB

Tracklist:
1. March of the Eastern Tribe 01:22 instrumental
2. Ostrogoth 05:09
3. Court of Blood 03:52
4. Godspeed 04:13
5. Icons Fall 04:54
6. Powder and Arms 03:48
7. All Manner of Light 03:57
8. Return To the Clouds 04:42
9. Four by Number, Four by Fate 15:27
******************************
Total playing time: 47:24



Extended info
Stripe Bass, Vocals (backing) (2016-present)
See also: ex-Ostrogoth
Tom Tas Guitars (2016-present)
See also: 23 Acez, Entering Polaris, In Motion, Projected Horizons, Quantum Fantay, Thorium, ex-Ostrogoth, ex-Neo Prophet
Dario Frodo Guitars, Vocals (backing) (2016-present)
See also: ex-Ostrogoth
Louis van der Linden Drums (2017-present)
See also: 23 Acez
David Marcelis Vocals (2018-present)
See also: Black Knight, Lord Volture, ex-Conquestador, ex-Methusalem, ex-FireForce (live)



Technical info
(IMG:http://metalarea.org/images/spectrogram/2018_Nov/80c3f298d654f97da8f0b7ea518ffbe0.png)
Input File: 03 - Court of Blood.mp3
Channels : 2
Sample Rate : 44100
Precision : 16-bit
Duration : 00:03:51.91 = 10227011 samples = 17392.9 CDDA sectors
File Size : 10.1M
Bit Rate : 347k
Sample Encoding: MPEG audio (layer I, II or III)
Comments :
Title=Court of Blood
Artist=Thorium
Album=Thorium
Tracknumber=3/9
Year=2018
Genre=Heavy Metal



Register


Go to the top of the page
  Insert nick Quick quote
+Quote Post
 
Start new topic
Replies (1 - 3)
post Nov 9 2018, 03:33:19
Post #2

Правь статус, ####!111
**************
Group: Металариец
Posts: 15,001
Releases: 10277
From: Г.Харьков
On Forums: 6 years 6 months
Thanks: 169683 time(s)
Unknown


Cloud Mail 320
Register


Go to the top of the page
  Insert nick Quick quote
+Quote Post
post Nov 9 2018, 09:14:12
Post #3

hearer & reader
**************
Group: Металариец
Posts: 7,141
Releases: 92
From: Moscow
On Forums: 11 years 2 months
Thanks: 6792 time(s)
Russian Federation


Есть достойная действующая датская дес-формация с таким названием.
Зачем же этим осколкам Ostrogoth'а потребовалось так назваться?
Go to the top of the page
  Insert nick Quick quote
+Quote Post
post Nov 9 2018, 16:39:32
Post #4

Шесть Литров
******
Group: Металариец
Posts: 618
Releases: 4
From: Екатеринбург
On Forums: 11 years 3 weeks
Thanks: 483 time(s)
Russian Federation


ЦИТАТА(AHBAnep @ Nov 9 2018, 11:14:12) *
Есть достойная действующая датская дес-формация с таким названием.

Вот и я подумал: "Неужели они стиль поменяли?" У них же ещё кавер на Детсад был году в 2000-ом.
Go to the top of the page
  Insert nick Quick quote
+Quote Post

Reply to this topicStart new topic
1 User(s) are reading this topic (1 Guests and 0 Anonymous Users)
0 Members:

 



- Lo-Fi Version Support form
Copyrights and abuse reports form
Time is now: 19th November 2018 - 22:35:24