Welcome Guest ( Log In | Register )

> Releases Upload / Добавление релизов

Добавить релиз тут / Click here to add release
Рекомендованные обменники / Recommended file shares

> The Reversionist - Sublimity (2018), Neo-Classical/Progressive Death Metal/Deathcore
post Nov 9 2018, 02:38:24
Post #1

Правь статус, ####!111
**************
Group: Металариец
Posts: 14,984
Releases: 10266
From: Г.Харьков
On Forums: 6 years 6 months
Thanks: 169429 time(s)
Unknown


(IMG:http://metalarea.org/images/audiocovers/2018_Nov/acov_tid312767_thumb.jpg)

*Artist: The Reversionist
*Album: Sublimity
*Year: 2018
*Genre: Neo-Classical/Progressive Death Metal/Deathcore
*Country: France (IMG:http://metalarea.org/forum/style_images/flags/France.png)
*Format: mp3@CBR320kbps
*Size: 88MB

Tracklist:
01 Elevate
02 Wasted Potential
03 New Paradigm
04 Pure
05 Singularity
06 Pandora
07 Heir to Chaos
08 Punchline
09 The Sign
10 A Dead End
11 Levitate
******************************
Total playing time: 37:43



Extended info
Anton Ncl (vocals)
Seb VS (lead guitars)
Stephan BARBONI (rhythm guitars)
Florent BARBONI (drums)
Dave RICHER (bass)



Technical info
(IMG:http://metalarea.org/images/spectrogram/2018_Nov/347ce19a09073ff1d46709de10d70904.png)
Input File: 04 Pure.mp3
Channels : 2
Sample Rate : 44100
Precision : 16-bit
Duration : 00:03:52.09 = 10235037 samples = 17406.5 CDDA sectors
File Size : 9.49M
Bit Rate : 327k
Sample Encoding: MPEG audio (layer I, II or III)
Comments :
Title=Pure
Artist=The Reversionist
Album=Sublimity
Tracknumber=4/11
Year=2018
Genre=Metal
Discnumber=1/1



Register


Go to the top of the page
  Insert nick Quick quote
+Quote Post
 
Start new topic
Replies (1 - 1)
post Nov 9 2018, 09:09:19
Post #2

hearer & reader
**************
Group: Металариец
Posts: 7,132
Releases: 91
From: Moscow
On Forums: 11 years 2 months
Thanks: 6777 time(s)
Russian Federation


Короче и яснее: Progressive Metalcore
Go to the top of the page
  Insert nick Quick quote
+Quote Post

Reply to this topicStart new topic
1 User(s) are reading this topic (1 Guests and 0 Anonymous Users)
0 Members:

 



- Lo-Fi Version Support form
Copyrights and abuse reports form
Time is now: 17th November 2018 - 22:50:39