Welcome Guest ( Log In | Register )

> Releases Upload / Добавление релизов

Добавить релиз тут / Click here to add release
Рекомендованные обменники / Recommended file shares

> Hammerhedd - Essence Of Iron (2018), Thrash Metal
post Nov 9 2018, 05:29:15
Post #1

Serial Uploader
Group Icon
Group: V.I.P
Posts: 33,297
Releases: 31568
From: Lithuania
On Forums: 10 years 5 months
Thanks: 360706 time(s)
Lithuania


(IMG:http://metalarea.org/images/audiocovers/2018_Nov/acov_tid312768_thumb.jpg)

*Artist: Hammerhedd
*Album: Essence Of Iron
*Year: 2018
*Genre: Thrash Metal
*Country: United States (IMG:http://metalarea.org/forum/style_images/flags/United%20States.png)
*Format: mp3@CBR320kbps
*Size: 74MB

Tracklist:
01. Restoration
02. Disturbance
03. Primitive
04. Rhythmic Succession
05. Essence of Iron
******************************
Total playing time: 32:21

Technical info
(IMG:http://metalarea.org/images/spectrogram/2018_Nov/5668272a4439b74b046bf3c437302b9c.png)
Input File: 02. Disturbance.mp3
Channels : 2
Sample Rate : 44100
Precision : 16-bit
Duration : 00:05:58.06 = 15790314 samples = 26854.3 CDDA sectors
File Size : 14.4M
Bit Rate : 321k
Sample Encoding: MPEG audio (layer I, II or III)
Comments :
Title=Disturbance
Artist=Hammerhedd
Album=Essence of Iron
Tracknumber=2/5
Year=2018



Register


Go to the top of the page
  Insert nick Quick quote
+Quote Post
 
Start new topic
Replies (1 - 4)
post Nov 9 2018, 07:41:26
Post #2

Два Литра
**
Group: Завсегдатай
Posts: 180
Releases: 0
From: Россия
On Forums: 6 years 9 months
Thanks: 59 time(s)
Russian Federation


И тут тебя одержимая курва снова обманула.Тип Релиза ЕР Смотри что переливаешь

Hammerhedd
3 ноября в 6:15 ·
It’s finally here! We are incredibly excited to announce the release of our debut EP, Essence of Iron, on sale Nov. 9th

Go to the top of the page
  Insert nick Quick quote
+Quote Post
post Nov 9 2018, 15:33:27    Сейчас играет: Blackened - The Dark Side
Post #3

antithesis
**************
Group: Металариец
Posts: 2,399
Releases: 30
From: VRN
On Forums: 8 years 5 months
Thanks: 1288 time(s)
Russian Federation


mirror, pls
Go to the top of the page
  Insert nick Quick quote
+Quote Post
post Nov 9 2018, 15:45:35
Post #4

Правь статус, ####!111
**************
Group: Металариец
Posts: 34,633
Releases: 504
On Forums: 9 years 5 months
Thanks: 26724 time(s)
Russian Federation


@320

Register


Go to the top of the page
  Insert nick Quick quote
+Quote Post
post Nov 11 2018, 06:11:21
Post #5

Пять Литров
*****
Group: Металариец
Posts: 488
Releases: 0
On Forums: 9 years 4 months
Thanks: 117 time(s)
Ukraine


Респект пацанам однозначно учитывая их возраст!!но,слушать их дебют просто блевать хочеться,точно что тягучий однообразный,неинтирестный трэшак,записанный полуподвально.Им ещё работать и работать потому что пока на уровне самодеятельности !!!А вот их видео посмотреть ну просто маст си-потому как дети играющие трэш это как никрути редкость!!
Go to the top of the page
  Insert nick Quick quote
+Quote Post

Reply to this topicStart new topic
1 User(s) are reading this topic (1 Guests and 0 Anonymous Users)
0 Members:

 



- Lo-Fi Version Support form
Copyrights and abuse reports form
Time is now: 19th November 2018 - 22:36:00