Welcome Guest ( Log In | Register )

> Connate Exasperation - Delusional Primacy (2018), Death Metal
post Nov 9 2018, 05:30:53
Post #1

Serial Uploader
Group Icon
Group: V.I.P
Posts: 35,814
Releases: 34022
From: Lithuania
On Forums: 11 years 2 months
Thanks: 393053 time(s)
Lithuania


(IMG:http://metalarea.org/images/audiocovers/2018_Nov/acov_tid312769_thumb.jpg)

*Artist: Connate Exasperation
*Album: Delusional Primacy
*Year: 2018
*Genre: Death Metal
*Country: Iran (IMG:http://metalarea.org/forum/style_images/flags/Iran.png)
*Format: mp3@CBR320kbps
*Size: 79MB

Tracklist:
01. Egoistic Demise
02. Obsequious Supremacy
03. Delusional Primacy, Pt. 1
04. Delusional Primacy, Pt. 2
05. Hollow Mentality
06. Subsistence of the Bygone
07. Perdition
08. Labyrinth of Darkness
******************************
Total playing time: 34:13

Technical info
(IMG:http://metalarea.org/images/spectrogram/2018_Nov/34c84b503fc738e2ae5ad8308dbd37cd.png)
Input File: 02. Obsequious Supremacy.mp3
Channels : 2
Sample Rate : 44100
Precision : 16-bit
Duration : 00:05:06.99 = 13538039 samples = 23023.9 CDDA sectors
File Size : 12.4M
Bit Rate : 322k
Sample Encoding: MPEG audio (layer I, II or III)
Comments :
Title=Obsequious Supremacy
Artist=Connate Exasperation
Album=Delusional Primacy
Tracknumber=2
Year=2018
Genre=Ìåòàë



Register


Go to the top of the page
  Insert nick Quick quote
+Quote Post
 
Start new topic
Replies (1 - 9)
post Nov 9 2018, 08:29:51
Post #2

Правь статус, ####!111
**************
Group: Металариец
Posts: 18,119
Releases: 12255
From: Г.Харьков
On Forums: 7 years 3 months
Thanks: 206381 time(s)
Unknown



Cloud Mail 320
Register


Go to the top of the page
  Insert nick Quick quote
+Quote Post
post Nov 9 2018, 08:57:57
Post #3

hearer & reader
**************
Group: Металариец
Posts: 7,947
Releases: 103
From: Moscow
On Forums: 11 years 11 months
Thanks: 7450 time(s)
Russian Federation


Go to the top of the page
  Insert nick Quick quote
+Quote Post
post Nov 9 2018, 15:31:21    Сейчас играет: Coffin Lust - Swarming Black Inferno
Post #4

antithesis
**************
Group: Металариец
Posts: 2,768
Releases: 31
From: VRN
On Forums: 9 years 2 months
Thanks: 1599 time(s)
Russian Federation


mirror, pls
Go to the top of the page
  Insert nick Quick quote
+Quote Post
post Nov 9 2018, 15:41:36
Post #5

Правь статус, ####!111
**************
Group: Металариец
Posts: 42,300
Releases: 638
On Forums: 10 years 2 months
Thanks: 33137 time(s)
Russian Federation


@320

Register


Go to the top of the page
  Insert nick Quick quote
+Quote Post
post Nov 9 2018, 21:53:48
Post #6

Два Литра
**
Group: Завсегдатай
Posts: 109
Releases: 0
On Forums: 10 years 5 months
Thanks: 61 time(s)
Russian Federation


Бодро.
Господа, напомните, плиз, дэт-группу из Ирана с трилогией про психические расстройства, кажется.
Go to the top of the page
  Insert nick Quick quote
+Quote Post
post Nov 9 2018, 22:12:38
Post #7

Empty Words
**************
Group: Металариец
Posts: 2,023
Releases: 13
From: Москва
On Forums: 10 years 2 days
Thanks: 2430 time(s)
Russian Federation


ЦИТАТА(Saabath @ Nov 9 2018, 23:53:48) *
Господа, напомните, плиз, дэт-группу из Ирана с трилогией про психические расстройства, кажется.
Tension Prophecy


Thanks:
(1) SyncestrA,
Go to the top of the page
  Insert nick Quick quote
+Quote Post
post Nov 13 2018, 16:18:23
Post #8

MDM-Thrash Metal
**************
Group: Металариец
Posts: 8,521
Releases: 561
From: Одесса
On Forums: 12 years 1 week
Thanks: 16520 time(s)
Ukraine



Go to the top of the page
  Insert nick Quick quote
+Quote Post
post Nov 15 2018, 11:57:59
Post #9

Три Литра
***
Group: Завсегдатай
Posts: 297
Releases: 54
From: Rostov-on-Don, Russia
On Forums: 12 years 9 months
Thanks: 561 time(s)
Russian Federation


Go to the top of the page
  Insert nick Quick quote
+Quote Post
post Dec 4 2018, 12:48:14
Post #10

Маньяк
**********
Group: Металариец
Posts: 1,403
Releases: 0
On Forums: 11 years 6 months
Thanks: 589 time(s)
Russian Federation


Игра барабанщика портит тут всё, тупо колошматит как будто тут какой-то тупой brutal death metal. Этот туктуктуктуктуктуктуктук задолбал уже на второй песне. Были бы рисунки барабанные интереснее было бы неплохо, а так...
Go to the top of the page
  Insert nick Quick quote
+Quote Post

Reply to this topicStart new topic
1 User(s) are reading this topic (1 Guests and 0 Anonymous Users)
0 Members:

 



- Lo-Fi Version Support form
Copyrights and abuse reports form
Time is now: 18th August 2019 - 02:29:05