Welcome Guest ( Log In | Register )

> Releases Upload / Добавление релизов

Добавить релиз тут / Click here to add release
Рекомендованные обменники / Recommended file shares

> Connate Exasperation - Delusional Primacy (2018), Death Metal
post Nov 9 2018, 05:30:53
Post #1

Serial Uploader
Group Icon
Group: V.I.P
Posts: 33,290
Releases: 31565
From: Lithuania
On Forums: 10 years 5 months
Thanks: 360604 time(s)
Lithuania


(IMG:http://metalarea.org/images/audiocovers/2018_Nov/acov_tid312769_thumb.jpg)

*Artist: Connate Exasperation
*Album: Delusional Primacy
*Year: 2018
*Genre: Death Metal
*Country: Iran (IMG:http://metalarea.org/forum/style_images/flags/Iran.png)
*Format: mp3@CBR320kbps
*Size: 79MB

Tracklist:
01. Egoistic Demise
02. Obsequious Supremacy
03. Delusional Primacy, Pt. 1
04. Delusional Primacy, Pt. 2
05. Hollow Mentality
06. Subsistence of the Bygone
07. Perdition
08. Labyrinth of Darkness
******************************
Total playing time: 34:13

Technical info
(IMG:http://metalarea.org/images/spectrogram/2018_Nov/34c84b503fc738e2ae5ad8308dbd37cd.png)
Input File: 02. Obsequious Supremacy.mp3
Channels : 2
Sample Rate : 44100
Precision : 16-bit
Duration : 00:05:06.99 = 13538039 samples = 23023.9 CDDA sectors
File Size : 12.4M
Bit Rate : 322k
Sample Encoding: MPEG audio (layer I, II or III)
Comments :
Title=Obsequious Supremacy
Artist=Connate Exasperation
Album=Delusional Primacy
Tracknumber=2
Year=2018
Genre=Ìåòàë



Register


Go to the top of the page
  Insert nick Quick quote
+Quote Post
 
Start new topic
Replies (1 - 8)
post Nov 9 2018, 08:29:51
Post #2

Правь статус, ####!111
**************
Group: Металариец
Posts: 14,984
Releases: 10266
From: Г.Харьков
On Forums: 6 years 6 months
Thanks: 169406 time(s)
Unknown



Cloud Mail 320
Register


Thanks:
Go to the top of the page
  Insert nick Quick quote
+Quote Post
post Nov 9 2018, 08:57:57
Post #3

hearer & reader
**************
Group: Металариец
Posts: 7,132
Releases: 91
From: Moscow
On Forums: 11 years 2 months
Thanks: 6777 time(s)
Russian Federation


Go to the top of the page
  Insert nick Quick quote
+Quote Post
post Nov 9 2018, 15:31:21    Сейчас играет: Coffin Lust - Swarming Black Inferno
Post #4

antithesis
**************
Group: Металариец
Posts: 2,399
Releases: 30
From: VRN
On Forums: 8 years 5 months
Thanks: 1287 time(s)
Russian Federation


mirror, pls
Go to the top of the page
  Insert nick Quick quote
+Quote Post
post Nov 9 2018, 15:41:36
Post #5

Правь статус, ####!111
**************
Group: Металариец
Posts: 34,584
Releases: 504
On Forums: 9 years 5 months
Thanks: 26695 time(s)
Russian Federation


@320

Register


Go to the top of the page
  Insert nick Quick quote
+Quote Post
post Nov 9 2018, 21:53:48
Post #6

Два Литра
**
Group: Завсегдатай
Posts: 108
Releases: 0
On Forums: 9 years 8 months
Thanks: 59 time(s)
Russian Federation


Бодро.
Господа, напомните, плиз, дэт-группу из Ирана с трилогией про психические расстройства, кажется.
Go to the top of the page
  Insert nick Quick quote
+Quote Post
post Nov 9 2018, 22:12:38
Post #7

Empty Words
***********
Group: Металариец
Posts: 1,946
Releases: 10
From: Москва
On Forums: 9 years 3 months
Thanks: 2254 time(s)
Russian Federation


ЦИТАТА(Saabath @ Nov 9 2018, 23:53:48) *
Господа, напомните, плиз, дэт-группу из Ирана с трилогией про психические расстройства, кажется.
Tension Prophecy


Thanks:
(1) SyncestrA,
Go to the top of the page
  Insert nick Quick quote
+Quote Post
post Nov 13 2018, 16:18:23
Post #8

MDM-Thrash Metal
**************
Group: Металариец
Posts: 7,244
Releases: 422
From: Одесса
On Forums: 11 years 3 months
Thanks: 13766 time(s)
Ukraine



Go to the top of the page
  Insert nick Quick quote
+Quote Post
post Nov 15 2018, 11:57:59
Post #9

Три Литра
***
Group: Завсегдатай
Posts: 287
Releases: 54
From: Rostov-on-Don, Russia
On Forums: 12 years 1 week
Thanks: 550 time(s)
Russian Federation


Go to the top of the page
  Insert nick Quick quote
+Quote Post

Reply to this topicStart new topic
2 User(s) are reading this topic (2 Guests and 0 Anonymous Users)
0 Members:

 



- Lo-Fi Version Support form
Copyrights and abuse reports form
Time is now: 17th November 2018 - 22:11:22