Welcome Guest ( Log In | Register )

> Releases Upload / Добавление релизов

Добавить релиз тут / Click here to add release
Рекомендованные обменники / Recommended file shares

> Hot Ram - Where Light Goes To Die (2018), Sludge
post Nov 9 2018, 05:32:20
Post #1

Serial Uploader
Group Icon
Group: V.I.P
Posts: 33,297
Releases: 31568
From: Lithuania
On Forums: 10 years 5 months
Thanks: 360707 time(s)
Lithuania


(IMG:http://metalarea.org/images/audiocovers/2018_Nov/acov_tid312770_thumb.jpg)

*Artist: Hot Ram
*Album: Where Light Goes To Die
*Year: 2018
*Genre: Sludge
*Country: United States (IMG:http://metalarea.org/forum/style_images/flags/United%20States.png)
*Format: mp3@CBR320kbps
*Size: 87MB

Tracklist:
01. Tribes of Titan
02. Ciudad de Diablo
03. Petra
04. Songs in the Storm
05. Nova Caesaria
06. Snake River
******************************
Total playing time: 37:42

Technical info
(IMG:http://metalarea.org/images/spectrogram/2018_Nov/75d0dcd1e50a3f5eae62be99f8b59cc6.png)
Input File: 02. Ciudad de Diablo.mp3
Channels : 2
Sample Rate : 44100
Precision : 16-bit
Duration : 00:07:17.50 = 19293750 samples = 32812.5 CDDA sectors
File Size : 17.6M
Bit Rate : 321k
Sample Encoding: MPEG audio (layer I, II or III)
Comments :
Title=Ciudad de Diablo
Artist=HOT RAM
Album=Where Light Goes to Die
Tracknumber=2
Year=2018
Genre=Metal



Register


Go to the top of the page
  Insert nick Quick quote
+Quote Post
 
Start new topic
Replies (1 - 1)
post Nov 9 2018, 14:12:18
Post #2

Serpent Doom
**************
Group: Металариец
Posts: 2,101
Releases: 646
From: Moscow region
On Forums: 10 years 2 months
Thanks: 11553 time(s)
Russian Federation


ЦИТАТА(necroscum @ 9th November 2018 - 07:32:20) *
Sludge Metal

Grindcore Metal, Crust Metal, Drone Metal... (IMG:style_emoticons/default/m1234.gif)


Thanks:
Go to the top of the page
  Insert nick Quick quote
+Quote Post

Reply to this topicStart new topic
1 User(s) are reading this topic (1 Guests and 0 Anonymous Users)
0 Members:

 



- Lo-Fi Version Support form
Copyrights and abuse reports form
Time is now: 19th November 2018 - 23:48:12