Welcome Guest ( Log In | Register )

> Releases Upload / Добавление релизов

Добавить релиз тут / Click here to add release
Рекомендованные обменники / Recommended file shares

> Painthing - Where Are You Now... ? (2018), Doom/Death Metal
post Nov 9 2018, 05:33:39
Post #1

Serial Uploader
Group Icon
Group: V.I.P
Posts: 33,290
Releases: 31565
From: Lithuania
On Forums: 10 years 5 months
Thanks: 360606 time(s)
Lithuania


(IMG:http://metalarea.org/images/audiocovers/2018_Nov/acov_tid312771_thumb.jpg)

*Artist: Painthing
*Album: Where Are You Now... ?
*Year: 2018
*Genre: Doom/Death Metal
*Country: Poland (IMG:http://metalarea.org/forum/style_images/flags/Poland.png)
*Format: mp3@CBR320kbps
*Size: 130MB

Tracklist:
01. Between
02. Widow and the King
03. Buzz and Madness
04. The Shell I Live In
05. Psychosis 448
06. Only Death Will Divide Us
07. To Live Is to Fight
08. So Be It
******************************
Total playing time: 56:22

Technical info
(IMG:http://metalarea.org/images/spectrogram/2018_Nov/b1268dd4f9df2b6e5f04dc8a63fa6359.png)
Input File: 02. Widow and the King.mp3
Channels : 2
Sample Rate : 44100
Precision : 16-bit
Duration : 00:07:37.22 = 20163534 samples = 34291.7 CDDA sectors
File Size : 18.3M
Bit Rate : 321k
Sample Encoding: MPEG audio (layer I, II or III)
Comments :
Title=Widow and the King
Artist=Painthing
Album=Where Are You Now...?
Tracknumber=2/8
Year=2018



Register


Go to the top of the page
  Insert nick Quick quote
+Quote Post
 
Start new topic
Replies (1 - 5)
post Nov 9 2018, 08:26:25
Post #2

Аннигилятор пивА
Group Icon
Group: V.I.P
Posts: 50,372
Releases: 15638
From: Koenigsberg - TILZIT
On Forums: 12 years 5 months
Thanks: 339706 time(s)
Russian Federation


129mb/320
Register


Go to the top of the page
  Insert nick Quick quote
+Quote Post
post Nov 9 2018, 08:34:48
Post #3

ЗаDOOMчивый
***********
Group: Металариец
Posts: 1,686
Releases: 27
From: Cradlовская обл., г. Нижний Gorgoroth, р-н Doom-о-Deathово
On Forums: 9 years 11 months
Thanks: 1168 time(s)
Russian Federation


"Where are you now, my love?" My Dying Bride - My Wine In Silence
И как товарищи? На что похожи?
Go to the top of the page
  Insert nick Quick quote
+Quote Post
post Nov 9 2018, 08:53:10
Post #4

hearer & reader
**************
Group: Металариец
Posts: 7,132
Releases: 91
From: Moscow
On Forums: 11 years 2 months
Thanks: 6777 time(s)
Russian Federation




Go to the top of the page
  Insert nick Quick quote
+Quote Post
post Nov 10 2018, 18:39:57
Post #5

Мегаманьяк
***********
Group: Металариец
Posts: 1,612
Releases: 0
From: Dnipro
On Forums: 10 years 4 months
Thanks: 424 time(s)
Ukraine


Очень скучный релиз, не понравился.
Go to the top of the page
  Insert nick Quick quote
+Quote Post
post Nov 11 2018, 11:52:39
Post #6

ME[ta]LLOMAN
**************
Group: Металариец
Posts: 4,873
Releases: 3
From: Hughes'sRegion\Avdeyevka
On Forums: 12 years 7 months
Thanks: 1772 time(s)
Honduras


ЦИТАТА(necroscum @ Nov 9 2018, 04:33:39) *
*Genre: Doom/Death Metal


ЦИТАТА(isvili @ Nov 10 2018, 17:39:57) *
Очень скучный релиз...

(IMG:style_emoticons/default/1488.gif)

..не выразительный - да, слабоватый по материалу - снова, да
Go to the top of the page
  Insert nick Quick quote
+Quote Post

Reply to this topicStart new topic
1 User(s) are reading this topic (1 Guests and 0 Anonymous Users)
0 Members:

 



- Lo-Fi Version Support form
Copyrights and abuse reports form
Time is now: 17th November 2018 - 22:37:20