Welcome Guest ( Log In | Register )

> Releases Upload / Добавление релизов

Добавить релиз тут / Click here to add release
Рекомендованные обменники / Recommended file shares

> Perpetrator - Sacrificial Slaughter (2018), Black/Death Metal
post Nov 9 2018, 05:35:24
Post #1

Правь статус, ####!111
**************
Group: Металариец
Posts: 15,001
Releases: 10277
From: Г.Харьков
On Forums: 6 years 6 months
Thanks: 169686 time(s)
Unknown


(IMG:http://metalarea.org/images/audiocovers/2018_Nov/acov_tid312772_thumb.jpg)

*Artist: Perpetrator
*Album: Sacrificial Slaughter
*Year: 2018
*Genre: Black/Death Metal
*Country: United States (IMG:http://metalarea.org/forum/style_images/flags/United%20States.png)
*Format: mp3@CBR320kbps
*Size: 93MB

Tracklist:
1. Destroy The Thought of God
2. Sacrificial Slaughter
3. The Gathering
4. Diabolous Meus Vinco
5. Fetal Feast
6. Ritual's End
7. Fill The Guillotne (Re-Release)
8. I Am My Own God (Re-Release)
******************************
Total playing time: 37:22


Preview 2

Extended info
Ace Slaughter- Lead Guitar/Vocals
Havoc- drums


Technical info
(IMG:http://metalarea.org/images/spectrogram/2018_Nov/07fdda42979705edfe515e102d7f5dbd.png)
Input File: 02 Sacrificial Slaughter.mp3
Channels : 2
Sample Rate : 44100
Precision : 16-bit
Duration : 00:04:11.76 = 11102572 samples = 18881.9 CDDA sectors
File Size : 10.6M
Bit Rate : 337k
Sample Encoding: MPEG audio (layer I, II or III)
Comments :
Title=Sacrificial Slaughter
Artist=Perpetrator
Album=Sacrificial Slaughter
Tracknumber=2/8
Year=2018
Genre=Black Metal
Discnumber=1/1



Register


Go to the top of the page
  Insert nick Quick quote
+Quote Post
 
Start new topic
Replies (1 - 3)
post Nov 9 2018, 08:09:18
Post #2

Правь статус, ####!111
**************
Group: Металариец
Posts: 15,001
Releases: 10277
From: Г.Харьков
On Forums: 6 years 6 months
Thanks: 169686 time(s)
Unknown


Cloud Mail 320
Register


Go to the top of the page
  Insert nick Quick quote
+Quote Post
post Nov 9 2018, 08:20:58
Post #3

Правь статус, ####!111
**************
Group: Металариец
Posts: 2,837
Releases: 0
From: Одесса
On Forums: 10 years 8 months
Thanks: 1189 time(s)
Ukraine


(IMG:style_emoticons/default/22.gif) (IMG:style_emoticons/default/22.gif) (IMG:style_emoticons/default/22.gif)
Go to the top of the page
  Insert nick Quick quote
+Quote Post
post Nov 10 2018, 16:44:22
Post #4

De Mysteriis Dom Sathanas
**************
Group: Металариец
Posts: 3,314
Releases: 63
From: Москва
On Forums: 10 years 4 months
Thanks: 2851 time(s)
Russian Federation


Зайдя по второй ссылке подумал , что на картинке велосипед)))Потом понял - наручники))) По музыке полный отстой, сделанный на коленке и это в 2018...зачем такое выпускать?
Go to the top of the page
  Insert nick Quick quote
+Quote Post

Reply to this topicStart new topic
2 User(s) are reading this topic (2 Guests and 0 Anonymous Users)
0 Members:

 



- Lo-Fi Version Support form
Copyrights and abuse reports form
Time is now: 19th November 2018 - 23:09:35