Welcome Guest ( Log In | Register )

> Releases Upload / Добавление релизов

Добавить релиз тут / Click here to add release
Рекомендованные обменники / Recommended file shares

> Karybdis - In The Shadow Of Paradise (2018), Melodic Death/Thrash Metal (D6)
post Nov 9 2018, 05:46:55
Post #1

Правь статус, ####!111
**************
Group: Металариец
Posts: 14,983
Releases: 10266
From: Г.Харьков
On Forums: 6 years 6 months
Thanks: 169406 time(s)
Unknown


(IMG:http://metalarea.org/images/audiocovers/2018_Nov/acov_tid312774_thumb.jpg)

*Artist: Karybdis
*Album: In The Shadow Of Paradise
*Year: 2018
*Genre: Melodic Death/Thrash Metal
*Country: United Kingdom (IMG:http://metalarea.org/forum/style_images/flags/United%20Kingdom.png)
*Format: mp3@CBR320kbps
*Size: 105MB

Tracklist:
1. The Scent of Sulphur 05:03
2. In the Shadow of Paradise 04:20
3. Manifestation 04:23
4. The Fall of Carnality 04:32
5. Thanatos 03:54
6. Chapters 01:25
7. Chronicles 04:48
8. Whispers 03:51
9. Abyssal 06:26
10. Omen 06:12
******************************
Total playing time: 44:54




Extended info
Jay Gladwin Bass (2008-present)
Mitch McGugan Drums (2008-present)
Pierro Dujardin Guitars (2008-present)
Rich O'Donnell Vocals (2011-present)
Matt Lowry Guitars (2016-present)


Technical info
(IMG:http://metalarea.org/images/spectrogram/2018_Nov/3547f651e9d4f42c0a08d2e69b57f95f.png)
Input File: 03 - Manifestation.mp3
Channels : 2
Sample Rate : 44100
Precision : 16-bit
Duration : 00:04:24.01 = 11642753 samples = 19800.6 CDDA sectors
File Size : 10.8M
Bit Rate : 327k
Sample Encoding: MPEG audio (layer I, II or III)
Comments :
Title=Manifestation
Artist=Karybdis
Album=In the Shadow of Paradise
Tracknumber=3
Year=2018



Register


Go to the top of the page
  Insert nick Quick quote
+Quote Post
 
Start new topic
Replies (1 - 3)
post Nov 9 2018, 08:07:50
Post #2

Правь статус, ####!111
**************
Group: Металариец
Posts: 14,983
Releases: 10266
From: Г.Харьков
On Forums: 6 years 6 months
Thanks: 169406 time(s)
Unknown


Cloud Mail 320
Register


Thanks:
Go to the top of the page
  Insert nick Quick quote
+Quote Post
post Nov 9 2018, 08:30:41
Post #3

hearer & reader
**************
Group: Металариец
Posts: 7,132
Releases: 91
From: Moscow
On Forums: 11 years 2 months
Thanks: 6777 time(s)
Russian Federation


Довольно мило, но...
ЦИТАТА(aesteticvice @ Feb 19 2016, 22:23:27) *
This is modern metal (с) (IMG:style_emoticons/default/crazy.gif)
в стиль можно смело вписать металкор и грув, а трэш убрать


Thanks:
Go to the top of the page
  Insert nick Quick quote
+Quote Post
post Nov 13 2018, 18:28:08
Post #4

MDM-Thrash Metal
**************
Group: Металариец
Posts: 7,244
Releases: 422
From: Одесса
On Forums: 11 years 3 months
Thanks: 13766 time(s)
Ukraine


ЦИТАТА(AHBAnep @ Nov 9 2018, 11:30:41) *
Довольно мило, но...

слушать такое как то не доставляет удовольствие вообще.
Go to the top of the page
  Insert nick Quick quote
+Quote Post

Reply to this topicStart new topic
1 User(s) are reading this topic (1 Guests and 0 Anonymous Users)
0 Members:

 



- Lo-Fi Version Support form
Copyrights and abuse reports form
Time is now: 17th November 2018 - 22:07:43