Welcome Guest ( Log In | Register )

> Releases Upload / Добавление релизов

Добавить релиз тут / Click here to add release
Рекомендованные обменники / Recommended file shares

> Clandestine Blaze - Tranquility Of Death (2018), Black Metal (D)
post Nov 9 2018, 07:04:25
Post #1


Group Icon
Group: Curation team
Posts: 1,814
Releases: 123
On Forums: 12 years 1 month
Thanks: 12707 time(s)
Russian Federation


(IMG:http://metalarea.org/images/audiocovers/2018_Nov/acov_tid312777_thumb.jpg)

*Artist: Clandestine Blaze
*Album: Tranquility Of Death
*Year: 2018
*Genre: Black Metal
*Country: Finland (IMG:http://metalarea.org/forum/style_images/flags/Finland.png)
*Format: mp3@CBR320kbps
*Size: 97MB

Tracklist:
1. God on the Cross 03:23
2. Tragedy of Humanization 08:36
3. Blood of the Enlightenment 07:00
4. Tamed Hearts 07:18
5. Tranquility of Death 08:46
6. Triumphant Empire 04:48
******************************
Total playing time: 39:51



Extended info
Northern Heritage, November 8.


Technical info
(IMG:http://metalarea.org/images/spectrogram/2018_Nov/c68eb5a0169ab8f21e2496d0a1eb9b92.png)
Input File: Clandestine Blaze - Tranquility Of Death - 02 Tragedy Of Humanization.mp3
Channels : 2
Sample Rate : 44100
Precision : 16-bit
Duration : 00:08:36.23 = 22765919 samples = 38717.5 CDDA sectors
File Size : 20.8M
Bit Rate : 322k
Sample Encoding: MPEG audio (layer I, II or III)
Comments :
Title=Tragedy Of Humanization
Artist=Clandestine Blaze
Album=Tranquility Of Death
Tracknumber=2
Year=2018



Register


Go to the top of the page
  Insert nick Quick quote
+Quote Post
3 Pages V  < 1 2 3  
Start new topic
Replies (60 - 62)
post Nov 11 2018, 18:44:44
Post #61

мизантроп же
*********
Group: Металариец
Posts: 996
Releases: 8
From: Малаховка
On Forums: 11 years 8 months
Thanks: 1102 time(s)
Russian Federation


ЦИТАТА(Kazoth @ Nov 11 2018, 18:00:02) *
Это вопрос именно мне или всем любителям чернухи?

Риторический)) (IMG:style_emoticons/default/smile1.gif)
Go to the top of the page
  Insert nick Quick quote
+Quote Post
post Nov 11 2018, 20:20:39
Post #62

Два Литра
**
Group: Завсегдатай
Posts: 188
Releases: 5
On Forums: 10 years 1 month
Thanks: 116 time(s)
Ukraine


ЦИТАТА(DiKobRaZzz @ Nov 11 2018, 13:27:50) *


(IMG:style_emoticons/default/15.gif)
Go to the top of the page
  Insert nick Quick quote
+Quote Post
post Yesterday, 05:55:05
Post #63

Prisoner Of Our Time
**************
Group: Металариец
Posts: 4,190
Releases: 41
From: Луганск, 13 регион, экс-"404"
On Forums: 12 years 11 months
Thanks: 1216 time(s)
Papua New Guinea


ЦИТАТА(DiKobRaZzz @ 11th November 2018 - 14:27:50) *

ржунимагу (IMG:style_emoticons/default/crazy.gif) (IMG:style_emoticons/default/15.gif) (IMG:style_emoticons/default/14.gif)
Go to the top of the page
  Insert nick Quick quote
+Quote Post

3 Pages V  < 1 2 3
Reply to this topicStart new topic
2 User(s) are reading this topic (2 Guests and 0 Anonymous Users)
0 Members:

 



- Lo-Fi Version Support form
Copyrights and abuse reports form
Time is now: 17th November 2018 - 22:19:28