Welcome Guest ( Log In | Register )

> Clouds - Do You See Me [single] (2018), Doom Metal (D)
post Nov 13 2018, 09:54:38
Post #1

Маньяк
**********
Group: Металариец
Posts: 1,234
Releases: 93
On Forums: 6 years 5 months
Thanks: 2694 time(s)
Unknown


(IMG:http://metalarea.org/images/audiocovers/2018_Nov/acov_tid312917_thumb.jpg)

*Artist: Clouds
*Album: Do You See Me [single]
*Year: 2018
*Genre: Doom Metal
*Country: International (IMG:http://metalarea.org/forum/style_images/flags/International.png)
*Format: mp3@CBR320kbps
*Size: 21MB

Tracklist:
01. Do You See Me 09:11
******************************
Total playing time: 9:11

Extended info


Technical info
(IMG:http://metalarea.org/images/spectrogram/2018_Nov/c35bbe9eb50431ec313fca8716b7a104.png)
Input File: 01 Do You See Me.mp3
Channels : 2
Sample Rate : 44100
Precision : 16-bit
Duration : 00:09:11.08 = 24302760 samples = 41331.2 CDDA sectors
File Size : 22.1M
Bit Rate : 321k
Sample Encoding: MPEG audio (layer I, II or III)
Comments :
Title=Do You See Me
Artist=Clouds Official
Album=Do You See Me
Tracknumber=1
Year=2018



Register


Go to the top of the page
  Insert nick Quick quote
+Quote Post
 
Start new topic
Replies (1 - 5)
post Nov 13 2018, 14:16:40
Post #2

Два Литра
**
Group: Завсегдатай
Posts: 179
Releases: 20
From: Saint-Petersburg, Купчино
On Forums: 14 years 4 months
Thanks: 420 time(s)
Russian Federation


Достаточно уныло
Go to the top of the page
  Insert nick Quick quote
+Quote Post
post Nov 13 2018, 14:24:06
Post #3
BAN
Banned till
Apr 14 2020, 14:42:21



Хорошая песня. Жаль, что на Dor не вошла.
Go to the top of the page
  Insert nick Quick quote
+Quote Post
post Nov 13 2018, 14:25:58
Post #4

Правь статус, ####!111
**************
Group: Металариец
Posts: 45,784
Releases: 705
On Forums: 10 years 10 months
Thanks: 37834 time(s)
Russian Federation


@320

Register


Thanks:
(1) Ostinato,
Go to the top of the page
  Insert nick Quick quote
+Quote Post
post Nov 13 2018, 14:50:47
Post #5

Пять Литров
*****
Group: Металариец
Posts: 426
Releases: 0
From: г.Таганрог
On Forums: 13 years 11 months
Thanks: 82 time(s)
Russian Federation


ЦИТАТА(Maximvs @ Nov 13 2018, 16:16:40) *
Достаточно уныло

Откуда вы такие лезете???


Thanks:
(1) Anataas,
Go to the top of the page
  Insert nick Quick quote
+Quote Post
post Nov 13 2018, 20:49:31
Post #6

Правь статус, ####!111
**************
Group: Металариец
Posts: 45,784
Releases: 705
On Forums: 10 years 10 months
Thanks: 37834 time(s)
Russian Federation


ЦИТАТА(NecroDeath @ Nov 13 2018, 17:50:47) *
Откуда вы такие лезете???


Ну уныло в думе далеко не всегда плохо. (IMG:style_emoticons/default/25.gif)


Thanks:
Go to the top of the page
  Insert nick Quick quote
+Quote Post

Reply to this topicStart new topic
1 User(s) are reading this topic (1 Guests and 0 Anonymous Users)
0 Members:

 



- Lo-Fi Version Support form
Copyrights and abuse reports form
Time is now: 8th April 2020 - 17:10:26