Welcome Guest ( Log In | Register )

> И неформату есть предел.

Рэп/хип-хоп/шансон/поп удаляются. Для них есть свои порталы.

 
Reply to this topicStart new topic
> Onecyze Project - Confused Mental State (2009), Electro-Industrial/EBM
post Nov 13 2018, 18:28:16
Post #1

Group: Подсевший
Posts: 34
Releases: 0
From: Belarus
On Forums: 12 years 7 months
Thanks: 18 time(s)
Russian Federation


(IMG:http://metalarea.org/images/audiocovers/2018_Nov/acov_tid312941_thumb.jpg)

*Artist: Onecyze Project
*Album: Confused Mental State
*Year: 2009
*Genre: Electro-Industrial/EBM
*Country: Germany (IMG:http://metalarea.org/forum/style_images/flags/Germany.png)
*Format: mp3@CBR256kbps
*Size: 90MB

Tracklist:
1. Under Hurt 05:04
2. Experiment 04:51
3. Fake World 04:44
4. My Wolrd 05:54
5. Nothing Matters 03:10
6. Midget Men 04:48
7. Head Crusher 04:45
8. Perfect Enemy 05:32
9. Endeavour 04:50
10. Confused Mental State 05:41
******************************
Total playing time: 49:19



Technical info
(IMG:http://metalarea.org/images/spectrogram/2018_Nov/38310052f43b77351f008cfc697c0ac1.png)
Input File: 01 under hurt.mp3
Channels : 2
Sample Rate : 44100
Precision : 16-bit
Duration : 00:05:04.34 = 13421570 samples = 22825.8 CDDA sectors
File Size : 9.76M
Bit Rate : 257k
Sample Encoding: MPEG audio (layer I, II or III)
Comments :
Title=Under Hurt
Artist=OneCyze Project
Album=Confused Mental State
Tracknumber=01
Year=2009
Genre=Industrial



Register


Thanks:
Go to the top of the page
  Insert nick Quick quote
+Quote Post

Reply to this topicStart new topic
1 User(s) are reading this topic (1 Guests and 0 Anonymous Users)
0 Members:

 



- Lo-Fi Version Support form
Copyrights and abuse reports form
Time is now: 20th October 2019 - 06:58:53