Welcome Guest ( Log In | Register )

> Thrashback - Sinister Force (2018), Old School Thrash Metal
post Nov 14 2018, 16:07:17
Post #1

Правь статус, ####!111
**************
Group: Металариец
Posts: 18,498
Releases: 12520
From: Г.Харьков
On Forums: 7 years 4 months
Thanks: 212065 time(s)
Unknown


(IMG:http://metalarea.org/images/audiocovers/2018_Nov/acov_tid312990_thumb.jpg)

*Artist: Thrashback
*Album: Sinister Force
*Year: 2018
*Genre: Old School Thrash Metal
*Country: France (IMG:http://metalarea.org/forum/style_images/flags/France.png)
*Format: mp3@CBR320kbps
*Size: 84MB

Tracklist:
1. The Beginning of the End (Intro)
2. Weapons of Mass Destruction
3. Stand Up and Fight
4. Chemical Death
5. No Way to Come Back
6. Exterminate
7. Sinister Force
8. Resurrected to Devour
9. Attack of the Undead
10. The Final Hour
11. Nothingness (Outro)
******************************
Total playing time: 37:41



Extended info
Le Gorg Bass (2012-present)
See also: Hürlement, ex-Evil One
Fabien Drums, Vocals (2012-present)
See also: ex-Evil One, ex-Dreamcatcher
Nicklaus Bergen Guitars (2016-present)
See also: ADX, Altered Beast, ex-Civilization One, ex-Vakarm, ex-Decline of Humanity, ex-Maladaptive, ex-Shadow of the Beast, ex-Infected Society, ex-Carnival in Coal (live), ex-Como Muertos, ex-Yyrkoon (live), ex-Bloody Gore, ex-Living Dead
Kriss Guitars (2016-present)


Technical info
(IMG:http://metalarea.org/images/spectrogram/2018_Nov/e823d6d43a2b960d6f21ef6a8b05e2b2.png)
Input File: 03 - Stand Up and Fight.mp3
Channels : 2
Sample Rate : 44100
Precision : 16-bit
Duration : 00:05:01.60 = 13300692 samples = 22620.2 CDDA sectors
File Size : 12.1M
Bit Rate : 320k
Sample Encoding: MPEG audio (layer I, II or III)
Comments :
Title=Stand Up and Fight
Artist=Thrashback
Album=Sinister Force
Tracknumber=3
Year=2018
Genre=Thrash Metal



Register


Go to the top of the page
  Insert nick Quick quote
+Quote Post
 
Start new topic
Replies (1 - 7)
post Nov 14 2018, 19:34:27
Post #2

Правь статус, ####!111
**************
Group: Металариец
Posts: 18,498
Releases: 12520
From: Г.Харьков
On Forums: 7 years 4 months
Thanks: 212065 time(s)
Unknown


Cloud Mail 320
Register


Go to the top of the page
  Insert nick Quick quote
+Quote Post
post Nov 14 2018, 22:39:18
Post #3

Правь статус, ####!111
**************
Group: Металариец
Posts: 2,606
Releases: 8
From: Dnipro
On Forums: 11 years 2 months
Thanks: 796 time(s)
Ukraine


Эти лягушатники знают толк в олдскуле, за плечами уже три отличных полноформата. (IMG:style_emoticons/default/20.gif)
Go to the top of the page
  Insert nick Quick quote
+Quote Post
post Nov 15 2018, 10:18:53
Post #4

Шесть Литров
******
Group: Металариец
Posts: 540
Releases: 0
On Forums: 10 years 2 months
Thanks: 125 time(s)
Ukraine


класснейший трэш от Французов которые не особо приуспели в трэше,всё по канонам жанра написано,лично для меня замена CRISIX!!!!!
НОВОЕ ИМЯ В ТРЭШЕ!!!!!!сразу залетает в ТОП 10 лучших трэш релизов года!!!Альбом-бомба!!!!
Go to the top of the page
  Insert nick Quick quote
+Quote Post
post Nov 15 2018, 10:22:41
Post #5
BAN
Banned till
Oct 7 2019, 23:44:15



Даже так? Ну если это уровень Кризикса времен 2011 - 2013, то сабж точно нужен, потому что после означенного периода у Крайзикса пошли котяшки.
Go to the top of the page
  Insert nick Quick quote
+Quote Post
post Nov 15 2018, 13:26:08
Post #6

Три Литра
***
Group: Завсегдатай
Posts: 271
Releases: 1
From: Moscow
On Forums: 7 years 3 months
Thanks: 68 time(s)
Russian Federation


Мда, крисих сдулся.
Только-только выдали крепкого гашика, и обратно на слабительное.
Сабж не дотягивает по идеям до К. ранних кстати.


Thanks:
Go to the top of the page
  Insert nick Quick quote
+Quote Post
post Nov 15 2018, 17:14:31
Post #7

Два Литра
**
Group: Завсегдатай
Posts: 125
Releases: 0
On Forums: 11 years 6 months
Thanks: 42 time(s)
Russian Federation


ЦИТАТА(Витон @ Nov 15 2018, 14:18:53) *
НОВОЕ ИМЯ В ТРЭШЕ!!!!!!сразу залетает в ТОП 10 лучших трэш релизов года!!!


Ну так-то не такое и новое. Формально - с 2012 года отсчет биографии. А если считать группу-"прообраз" - Evil One, то ажно с 1997-го (там совершенно другой материал, но тоже достойно внимания, как минимум).
А то, что в топ залетает, так это да, возразить нечего. Как впрочем, это сделали каждый в свое время оба предыдущих альбома. (IMG:style_emoticons/default/pray.gif)


Thanks:
Go to the top of the page
  Insert nick Quick quote
+Quote Post
post Nov 16 2018, 12:48:58
Post #8

Dr.
**************
Group: Металариец
Posts: 5,306
Releases: 0
From: Primorye.ru
On Forums: 8 years 5 months
Thanks: 1080 time(s)
Russian Federation


на предстоящие выходные, можно переслушивать и не раз!


Thanks:
Go to the top of the page
  Insert nick Quick quote
+Quote Post

Reply to this topicStart new topic
2 User(s) are reading this topic (2 Guests and 0 Anonymous Users)
0 Members:

 



- Lo-Fi Version Support form
Copyrights and abuse reports form
Time is now: 16th September 2019 - 23:44:03