Welcome Guest ( Log In | Register )

> И неформату есть предел.

Рэп/хип-хоп/шансон/поп удаляются. Для них есть свои порталы.

 
Reply to this topicStart new topic
> Overhead - Haydenspark (2018), Progressive Rock
post Nov 14 2018, 22:10:06
Post #1

Герберт Уэст
**************
Group: Металариец
Posts: 2,148
Releases: 65
From: Поморье
On Forums: 10 years 3 months
Thanks: 4441 time(s)
Russian Federation


(IMG:http://metalarea.org/images/audiocovers/2018_Nov/acov_tid313005_thumb.jpg)

*Artist: Overhead
*Album: Haydenspark
*Year: 2018
*Genre: Progressive Rock
*Country: Finland (IMG:http://metalarea.org/forum/style_images/flags/Finland.png)
*Format: mp3@CBR320kbps
*Size: 110MB

Tracklist:
1. Animation for the Poor Man 04:13
2. Last Generation 05:15
3. Count Your Blessings 04:44
4. Haydenspark 09:24
5. King of the World 05:31
6. Across the Nation 05:23
7. Death by Tribulation 05:19
8. The Fall 03:54
9. Gone Too Far 08:04
******************************
Total playing time: 51:47



Technical info
(IMG:http://metalarea.org/images/spectrogram/2018_Nov/e78357c3cec5aaca2a90a2d359d2cae7.png)
Input File: 01. Animation for the Poor Man.mp3
Channels : 2
Sample Rate : 44100
Precision : 16-bit
Duration : 00:04:13.88 = 11195888 samples = 19040.6 CDDA sectors
File Size : 10.3M
Bit Rate : 325k
Sample Encoding: MPEG audio (layer I, II or III)
Comments :
Title=Animation for the Poor Man
Artist=Overhead
Album=Haydenspark
Tracknumber=1
Year=2018
Discnumber=1



Register


Go to the top of the page
  Insert nick Quick quote
+Quote Post

Reply to this topicStart new topic
2 User(s) are reading this topic (2 Guests and 0 Anonymous Users)
0 Members:

 



- Lo-Fi Version Support form
Copyrights and abuse reports form
Time is now: 16th September 2019 - 11:14:41