Welcome Guest ( Log In | Register )

> И неформату есть предел.

Рэп/хип-хоп/шансон/поп удаляются. Для них есть свои порталы.

 
Reply to this topicStart new topic
> Allied Vision - Unburied (1999), Dark Electro/Harsh Ebm
post Nov 15 2018, 13:42:37
Post #1

Два Литра
**
Group: Завсегдатай
Posts: 179
Releases: 42
On Forums: 3 years 2 months
Thanks: 951 time(s)
United States


(IMG:http://metalarea.org/images/audiocovers/2018_Nov/acov_tid313040_thumb.jpg)

*Artist: Allied Vision
*Album: Unburied
*Year: 1999
*Genre: Dark Electro/Harsh Ebm
*Country: Spain (IMG:http://metalarea.org/forum/style_images/flags/Spain.png)
*Format: mp3@CBR320kbps
*Size: 162MB

Tracklist:
1 All The Dead
2 Black Wizard
3 Madness Survival
4 Demon Sect
5 Spreader (Instrumental)
6 Lance Of Destiny
7 Cup Of Sorrow
8 Gravedigger
9 Unforgiven
10 Insane Gargoyle
11 Cup Of Sorrow (frequency remix by Negative Format)
12 Unforgiven (fire drill mix by Gridlock)
13 All The Dead (stripped down mix by Aghast View)
******************************
Total playing time: 1:01:50

Technical info
(IMG:http://metalarea.org/images/spectrogram/2018_Nov/528349078578ac63ea933a5255ebbd44.png)
Input File: 13 - All the Dead (Stripped Down Mix by Aghast View).mp3
Channels : 2
Sample Rate : 44100
Precision : 16-bit
Duration : 00:05:28.39 = 14481779 samples = 24628.9 CDDA sectors
File Size : 13.1M
Bit Rate : 320k
Sample Encoding: MPEG audio (layer I, II or III)
Comments :
Title=All the Dead (Stripped Down Mix by Aghast View)
Artist=Allied Vision
Album=Unburied
Tracknumber=13
Year=1999
Genre=Industrial



Register


Go to the top of the page
  Insert nick Quick quote
+Quote Post

Reply to this topicStart new topic
1 User(s) are reading this topic (1 Guests and 0 Anonymous Users)
0 Members:

 



- Lo-Fi Version Support form
Copyrights and abuse reports form
Time is now: 23rd October 2019 - 00:37:20