Welcome Guest ( Log In | Register )

> 

Здесь релизы с живыми прямыми ссылками на lossless

> Black Oath - Behold The Abyss (2018), Doom Metal (D)
post Nov 15 2018, 14:40:48
Post #1

Аннигилятор пивА
Group Icon
Group: V.I.P
Posts: 52,360
Releases: 16550
From: Koenigsberg - TILZIT
On Forums: 14 years 7 months
Thanks: 366971 time(s)
Russian Federation


(IMG:https://metalarea.org/images/audiocovers/2018_Nov/acov_tid313052_thumb.jpg)

*Artist: Black Oath
*Album: Behold The Abyss
*Year: 2018
*Genre: Doom Metal
*Country: Italy (IMG:https://metalarea.org/forum/style_images/flags/Italy.png)
*Format: mp3@CBR320kbps
*Size: 99MB

Tracklist:
1. Behold the Abyss 09:13
2. Chants of Aradia 07:19
3. Lilith Black Moon 07:32
4. Once Death Sang 05:04
5. Profane Saviour 07:12
6. Everlasting Darkness 05:05
******************************
Total playing time: 41:25




Extended info
A.Th - Vocals, Guitars (2006-present), Bass (2015-present) See also: The Rite, ex-Gosforth, ex-Arvind, ex-Morbus Grave, ex-Sepulcral
Chris Z. - Drums (2010-present) See also: ex-Gosforth, ex-Nemesant, ex-Infliction
B. R. - Guitars (2014-present) See also: Necro


Technical info
(IMG:https://metalarea.org/images/spectrogram/2018_Nov/fb76f22ae5cc69374df04ad1fdf6df7e.png)
Input File: 04. Once Death Sang.mp3
Channels : 2
Sample Rate : 44100
Precision : 16-bit
Duration : 00:05:04.95 = 13448163 samples = 22871 CDDA sectors
File Size : 12.6M
Bit Rate : 332k
Sample Encoding: MPEG audio (layer I, II or III)
Comments :
Title=Once Death Sang
Artist=Black Oath
Album=Behold the Abyss
Tracknumber=4/6
Year=2018
Discnumber=1/1



Register


Go to the top of the page
  Insert nick Quick quote
+Quote Post
 
Start new topic
Replies (1 - 6)
post Nov 16 2018, 11:52:14
Post #2

Аннигилятор пивА
Group Icon
Group: V.I.P
Posts: 52,360
Releases: 16550
From: Koenigsberg - TILZIT
On Forums: 14 years 7 months
Thanks: 366971 time(s)
Russian Federation


MIRROR
Register


Go to the top of the page
  Insert nick Quick quote
+Quote Post
post Nov 16 2018, 11:53:18
Post #3

Правь статус, ####!111
**************
Group: Металариец
Posts: 48,080
Releases: 763
On Forums: 11 years 7 months
Thanks: 41617 time(s)
Russian Federation


Хорошая группа.
Go to the top of the page
  Insert nick Quick quote
+Quote Post
post Nov 16 2018, 14:04:33
Post #4

Правь статус, ####!111
**************
Group: Металариец
Posts: 3,437
Releases: 11
From: Dnipro
On Forums: 12 years 6 months
Thanks: 1287 time(s)
Ukraine


Отличная музыка, но с таким слащавым вокалом слушать не могу.
Go to the top of the page
  Insert nick Quick quote
+Quote Post
post Nov 15 2019, 20:09:22
Post #5

but I'm white and furry
**********
Group: Металариец
Posts: 1,383
Releases: 497
From: Москва
On Forums: 14 years 11 months
Thanks: 6598 time(s)
Russian Federation


Редко нравится дум в чистом виде, но этот прям отлично зашёл (IMG:style_emoticons/default/20.gif)
Go to the top of the page
  Insert nick Quick quote
+Quote Post
post Jan 13 2021, 19:56:01
Post #6

Два Литра
**
Group: Завсегдатай
Posts: 171
Releases: 0
On Forums: 1 year 8 months
Thanks: 10 time(s)
Russian Federation


Прошу перезалив
Go to the top of the page
  Insert nick Quick quote
+Quote Post
post Jan 14 2021, 16:56:20
Post #7

Group Icon
Group: S-moderation team
Posts: 18,873
Releases: 1441
From: Zagreb
On Forums: 9 years 10 months
Thanks: 86985 time(s)
Croatia


Register
Register


Thanks:
(1) Olethros,
Go to the top of the page
  Insert nick Quick quote
+Quote Post

Reply to this topicStart new topic
2 User(s) are reading this topic (2 Guests and 0 Anonymous Users)
0 Members:

 



- Lo-Fi Version Support form
Copyrights and abuse reports form
Time is now: 25th January 2021 - 06:04:45