Welcome Guest ( Log In | Register )

> Isgärde - Den Sista Vilobädden (2018), Black Metal
post Nov 16 2018, 05:42:01
Post #1

Serial Uploader
Group Icon
Group: V.I.P
Posts: 37,124
Releases: 35308
From: Lithuania
On Forums: 11 years 11 months
Thanks: 419359 time(s)
Lithuania


(IMG:http://metalarea.org/images/audiocovers/2018_Nov/acov_tid313092_thumb.jpg)

*Artist: Isgärde
*Album: Den Sista Vilobädden
*Year: 2018
*Genre: Black Metal
*Country: Sweden (IMG:http://metalarea.org/forum/style_images/flags/Sweden.png)
*Format: mp3@CBR320kbps
*Size: 96MB

Tracklist:
01. Blasinge
02. Klatt I Frostens Nalar
03. Hostens Erovring
04. Benrangelsmannen
05. Time For The Ages
06. Naturen Ensam Rar
07. Slaget vid Oland
08. Ande Herren
09. Begravd
******************************
Total playing time: 41:42



Technical info
(IMG:http://metalarea.org/images/spectrogram/2018_Nov/cb710b80df2ae8a10e914b74516ffe60.png)
Input File: 02. Klatt I Frostens Nalar.mp3
Channels : 2
Sample Rate : 44100
Precision : 16-bit
Duration : 00:06:01.06 = 15922790 samples = 27079.6 CDDA sectors
File Size : 14.4M
Bit Rate : 320k
Sample Encoding: MPEG audio (layer I, II or III)
Comments :
Title=Klatt I Frostens Nalar
Artist=Isgarde
Album=Den Sista Vilobadden
Tracknumber=2/9
Year=2018



Register


Go to the top of the page
  Insert nick Quick quote
+Quote Post
 
Start new topic
Replies (1 - 3)
post Nov 17 2018, 07:34:52
Post #2

my church is black
*********
Group: Металариец
Posts: 957
Releases: 3
On Forums: 2 years 11 months
Thanks: 607 time(s)
Cape Verde


позитивный такой мелодик блэк, чуть ли не в фолк-метал по мелодике тащит
совсем не моё
Go to the top of the page
  Insert nick Quick quote
+Quote Post
post Nov 17 2018, 07:55:35
Post #3

Правь статус, ####!111
**************
Group: Металариец
Posts: 2,459
Releases: 11
From: Canada
On Forums: 12 years 11 months
Thanks: 1639 time(s)
Canada




Thanks:
(1) artscald,
Go to the top of the page
  Insert nick Quick quote
+Quote Post
post Nov 18 2018, 19:30:49
Post #4

Правь статус, ####!111
**************
Group: Металариец
Posts: 3,007
Releases: 8
From: Dnipro
On Forums: 11 years 10 months
Thanks: 970 time(s)
Ukraine


Что то такое сумбурное, смешанное и мелодичное. Тут и тролли и викинги и фолки всякие, всё в куче.
Достаточно забавно слушается, такое мне нравится (IMG:style_emoticons/default/20.gif)
Go to the top of the page
  Insert nick Quick quote
+Quote Post

Reply to this topicStart new topic
2 User(s) are reading this topic (2 Guests and 0 Anonymous Users)
0 Members:

 



- Lo-Fi Version Support form
Copyrights and abuse reports form
Time is now: 30th May 2020 - 22:27:16