Welcome Guest ( Log In | Register )

> Ars Hmu - The Dawn Of Black Pansophy [demo] (2018), Atmospheric Black Metal
post Nov 18 2018, 20:38:18
Post #1

Правь статус, ####!111
**************
Group: Металариец
Posts: 3,969
Releases: 1010
From: Brazil
On Forums: 7 years 9 months
Thanks: 37403 time(s)
Brazil


(IMG:https://metalarea.org/images/audiocovers/2018_Nov/acov_tid313170_thumb.jpg)

*Artist: Ars Hmu
*Album: The Dawn Of Black Pansophy [demo]
*Year: 2018
*Genre: Atmospheric Black Metal
*Country: Sweden (IMG:https://metalarea.org/forum/style_images/flags/Sweden.png)
*Format: mp3@CBR320kbps
*Size: 133MB

Tracklist:
A1. The Dawn Of Black Pansophy
B1. The Dawn Of Black Pansophy
******************************
Total playing time: 57:46

Extended info
Guitars and drums recorded in 2012, vocals and bass re-recorded in 2018.

Remixed and remastered at Afgrundsmysticism Studios in 2018.


Technical info
(IMG:https://metalarea.org/images/spectrogram/2018_Nov/d49c89eb8153ecd914f7c11ec34b18ec.png)
Input File: A1. The Dawn Of Black Pansophy.mp3
Channels : 2
Sample Rate : 44100
Precision : 16-bit
Duration : 00:29:05.15 = 76961291 samples = 130887 CDDA sectors
File Size : 69.8M
Bit Rate : 320k
Sample Encoding: MPEG audio (layer I, II or III)
Comments :
Title=The Dawn Of Black Pansophy
Artist=Ars Hmu
Album=The Dawn Of Black Pansophy
Tracknumber=1
Year=2018



Register


Go to the top of the page
  Insert nick Quick quote
+Quote Post
 
Start new topic
Replies (1 - 3)
post Nov 19 2018, 07:24:25
Post #2

Три Литра
***
Group: Завсегдатай
Posts: 226
Releases: 4
From: урал
On Forums: 10 years 1 week
Thanks: 307 time(s)
Russian Federation


На обеих сторонах один и тот же трек?
Go to the top of the page
  Insert nick Quick quote
+Quote Post
post Nov 19 2018, 12:31:54
Post #3

Forever Underground
**************
Group: Металариец
Posts: 6,249
Releases: 0
On Forums: 4 years 7 months
Thanks: 7168 time(s)
Unknown


QUOTE(vovenom @ Nov 19 2018, 07:24:25) *
На обеих сторонах один и тот же трек?

Yes, the same track, I suppose... Seems it's only one track, who lasts 57 mins. & 46 seconds (IMG:style_emoticons/default/22.gif) Released in 2018 by Purity Through Fire Rec.: https://www.discogs.com/Ars-Hmu-The-Dawn-Of...elease/12549533
Perhaps the song has been divided in part 1 and part 2 on phisical tape, who knows...


Thanks:
(1) vovenom,
Go to the top of the page
  Insert nick Quick quote
+Quote Post
post Nov 25 2018, 20:08:45
Post #4

Правь статус, ####!111
**************
Group: Металариец
Posts: 2,536
Releases: 12
On Forums: 12 years 3 months
Thanks: 1433 time(s)
Russian Federation


Настоящая магия для скандинавской ходьбы ( с бутылкой).


Thanks:
Go to the top of the page
  Insert nick Quick quote
+Quote Post

Reply to this topicStart new topic
2 User(s) are reading this topic (2 Guests and 0 Anonymous Users)
0 Members:

 



- Lo-Fi Version Support form
Copyrights and abuse reports form
Time is now: 12th November 2019 - 22:14:12