Welcome Guest ( Log In | Register )

> Правила / Rules

Тут только для чтения лежат низкобитрейтные (<192kbps) релизы, для которых есть аналоги в высокобитрейтных форумах.

Here goes (and stand in read only mode) low bitrate releases (<192kbps) which were already replaced by high bitrate releases in corresponding forums.

> Corpsessed - Impetus Of Death (2018), Old School Death Metal (D4)
post Nov 19 2018, 10:13:54
Post #1

Правь статус, ####!111
**************
Group: Металариец
Posts: 17,064
Releases: 11589
From: Г.Харьков
On Forums: 7 years 2 weeks
Thanks: 193542 time(s)
Unknown


(IMG:http://metalarea.org/images/audiocovers/2018_Nov/acov_tid313180_thumb.jpg)

*Artist: Corpsessed
*Album: Impetus Of Death
*Year: 2018
*Genre: Old School Death Metal
*Country: Finland (IMG:http://metalarea.org/forum/style_images/flags/Finland.png)
*Format: mp3@CBR192kbps
*Size: 62MB

Tracklist:
1. Impetus of the Dead 06:20
2. Sortilege 05:33
3. Endless Plains of Dust 05:15
4. Graveborne 04:31
5. Paroxysmal 03:26
6. Forlorn Burial 05:50
7. Begetter of Doom 04:32
8. Starless Event Horizon 10:25
******************************
Total playing time: 45:52




Extended info
В ЛоуJ
ussi-Pekka Manner Drums, Vocals (backing)
Jyri Lustig Guitars
Matti Mäkelä Vocals (backing), Guitars
Niko Matilainen Vocals (lead)
Tuomas Kulmala Bass



Technical info
(IMG:http://metalarea.org/images/spectrogram/2018_Nov/c669531785170f8997cb331313fdb1a1.png)
Input File: 02 - Sortilege.mp3
Channels : 2
Sample Rate : 44100
Precision : 16-bit
Duration : 00:05:32.50 = 14663206 samples = 24937.4 CDDA sectors
File Size : 7.98M
Bit Rate : 192k
Sample Encoding: MPEG audio (layer I, II or III)
Comments :
Title=Sortilege
Artist=Corpsessed
Album=Impetus of Death
Tracknumber=2
Year=2018
Genre=Death Metal



Register


Go to the top of the page
  Insert nick Quick quote
+Quote Post
 
Start new topic
Replies (1 - 4)
post Nov 19 2018, 19:18:41
Post #2
BAN
Banned till
Jun 15 2019, 17:50:12



В свое время группа вызвала немалый хайп среди металхэдов.


Thanks:
Go to the top of the page
  Insert nick Quick quote
+Quote Post
post Nov 19 2018, 20:57:54
Post #3

Литр
*
Group: Подсевший
Posts: 91
Releases: 0
From: Baltimore, MD
On Forums: 12 years 2 months
Thanks: 8 time(s)
United States


Fucking great band.


Thanks:
(1) Tino,
Go to the top of the page
  Insert nick Quick quote
+Quote Post
post Nov 19 2018, 21:57:31
Post #4

Crush The Enemies
**************
Group: Металариец
Posts: 4,191
Releases: 0
From: Moscow
On Forums: 9 years 8 months
Thanks: 2310 time(s)
Russian Federation


ЦИТАТА(vosmidesijatye @ Nov 19 2018, 22:18:41) *
В свое время группа вызвала немалый хайп среди металхэдов.


И сейчас ОНА вызывает брутальное УВАЖЕНИЕ! (IMG:style_emoticons/default/9.gif)

P.S Низкий строй,мрачно-инфернальная АТМОСФЕРА плюс УТРОБНЫЙ гроул,как ВИШЕНКА на торте! (IMG:style_emoticons/default/dwarf-1.gif)


Go to the top of the page
  Insert nick Quick quote
+Quote Post
post Nov 20 2018, 09:51:03
Post #5

Наливай!
**************
Group: Металариец
Posts: 5,297
Releases: 27
From: Москва-Бибирево
On Forums: 11 years 2 months
Thanks: 2533 time(s)
Russian Federation


Подбавьте жЫрку в битрейте!


Thanks:
Go to the top of the page
  Insert nick Quick quote
+Quote Post

Причина закрытия (DarkHorde 22-11-2018): Corpsessed - Impetus Of Death (2018)
Closed TopicStart new topic
1 User(s) are reading this topic (1 Guests and 0 Anonymous Users)
0 Members:

 



- Lo-Fi Version Support form
Copyrights and abuse reports form
Time is now: 27th May 2019 - 08:02:44