Welcome Guest ( Log In | Register )

> Doom Side Of The Moon - Encore [ep] (2018), Psychedelic Doom Metal/Progressive Rock
post Nov 22 2018, 10:00:14
Post #1

Правь статус, ####!111
**************
Group: Металариец
Posts: 37,287
Releases: 547
On Forums: 9 years 8 months
Thanks: 28666 time(s)
Russian Federation


(IMG:http://metalarea.org/images/audiocovers/2018_Nov/acov_tid313293_thumb.jpg)

*Artist: Doom Side Of The Moon
*Album: Encore [ep]
*Year: 2018
*Genre: Psychedelic Doom Metal/Progressive Rock
*Country: United States (IMG:http://metalarea.org/forum/style_images/flags/United%20States.png)
*Format: mp3@CBR320kbps
*Size: 36MB

Tracklist:
1. Have a Cigar 05:10
2. Pigs (Three Different Ones) 07:05
3. Wish You Were Here 04:52
******************************
Total playing time: 17:07

Technical info
(IMG:http://metalarea.org/images/spectrogram/2018_Nov/15038b3a2cd2de3f3512cfae8391fc0f.png)
Input File: 01. Have a Cigar.mp3
Channels : 2
Sample Rate : 44100
Precision : 16-bit
Duration : 00:05:10.56 = 13695872 samples = 23292.3 CDDA sectors
File Size : 12.5M
Bit Rate : 323k
Sample Encoding: MPEG audio (layer I, II or III)
Comments :
Title=Have a Cigar
Artist=Doom Side of The Moon
Album=Encore
Tracknumber=1/3
Year=2018
Genre=9
Discnumber=1/1



Register


Go to the top of the page
  Insert nick Quick quote
+Quote Post
 
Start new topic
Replies (1 - 6)
post Nov 22 2018, 13:12:10
Post #2

Правь статус, ####!111
**************
Group: Металариец
Posts: 37,287
Releases: 547
On Forums: 9 years 8 months
Thanks: 28666 time(s)
Russian Federation


Любители Пинк Флойд, это для Вас.
Go to the top of the page
  Insert nick Quick quote
+Quote Post
post Nov 22 2018, 13:14:15
Post #3

Аннигилятор пивА
Group Icon
Group: V.I.P
Posts: 52,220
Releases: 16496
From: Koenigsberg - TILZIT
On Forums: 12 years 8 months
Thanks: 357260 time(s)
Russian Federation


ЦИТАТА(vosmidesijatye @ Nov 22 2018, 12:12:10) *
Любители Пинк Флойд, это для Вас.

Я недавно где-то большой альбом видел, но чет не пошло
Go to the top of the page
  Insert nick Quick quote
+Quote Post
post Nov 22 2018, 13:14:56
Post #4

Правь статус, ####!111
**************
Group: Металариец
Posts: 37,287
Releases: 547
On Forums: 9 years 8 months
Thanks: 28666 time(s)
Russian Federation


ЦИТАТА(aesteticvice @ Nov 22 2018, 16:14:15) *
Я недавно где-то большой альбом видел, но чет не пошло


Здесь же он и есть. 2017 года.
Go to the top of the page
  Insert nick Quick quote
+Quote Post
post Nov 22 2018, 13:57:45
Post #5

Правь статус, ####!111
**************
Group: Металариец
Posts: 37,287
Releases: 547
On Forums: 9 years 8 months
Thanks: 28666 time(s)
Russian Federation


Пишите кому надо FLAC. (IMG:style_emoticons/default/smile1.gif)
Go to the top of the page
  Insert nick Quick quote
+Quote Post
post Nov 23 2018, 13:02:20
Post #6

MISANTHROPHILIAC 666
******
Group: Металариец
Posts: 536
Releases: 1
From: Екатеринбург
On Forums: 10 years 8 months
Thanks: 294 time(s)
Russian Federation


ЦИТАТА(vosmidesijatye @ Nov 22 2018, 17:12:10) *
Любители Пинк Флойд, это для Вас.

Я давнишний почитатель ПФ 666
Но этот "продукт" = вафельный ковер (и гаражно-длясебяшное "искусство"), ибо абсолютно недостаточно тупо утяжелить саунд ПФ (пусть бы Kyle Shutt своим Мечом занимался = там всяко лучше у него выходит) 666 (IMG:style_emoticons/default/22.gif)
Лучше пойду переслушаю 666-лионный раз Госпожу Астрономию от сами знаете кого (а если не знаете = VOIVOD) 666
Go to the top of the page
  Insert nick Quick quote
+Quote Post
post Feb 11 2019, 15:38:23
Post #7

Schuldinerist
**************
Group: Металариец
Posts: 10,052
Releases: 33
From:
On Forums: 11 years 10 months
Thanks: 6207 time(s)
Russian Federation


А мне нормально зашло 8+/10.

Полноформат 2017 года такой же зачетный?
Go to the top of the page
  Insert nick Quick quote
+Quote Post

Reply to this topicStart new topic
2 User(s) are reading this topic (2 Guests and 0 Anonymous Users)
0 Members:

 



- Lo-Fi Version Support form
Copyrights and abuse reports form
Time is now: 17th February 2019 - 00:15:57