Welcome Guest ( Log In | Register )

> Within Temptation - Firelight [single] (2018), Symphonic/Gothic Metal
post Nov 22 2018, 14:39:47
Post #1

Правь статус, ####!111
**************
Group: Металариец
Posts: 36,504
Releases: 537
On Forums: 9 years 7 months
Thanks: 28230 time(s)
Russian Federation


(IMG:http://metalarea.org/images/audiocovers/2018_Nov/acov_tid313317_thumb.jpg)

*Artist: Within Temptation
*Album: Firelight [single]
*Year: 2018
*Genre: Symphonic/Gothic Metal
*Country: Netherlands (IMG:http://metalarea.org/forum/style_images/flags/Netherlands.png)
*Format: mp3@CBR320kbps
*Size: 8MB

Tracklist:
1. Firelight (feat. Jasper Steverlinck) 03:50
******************************
Total playing time: 3:50

Technical info
(IMG:http://metalarea.org/images/spectrogram/2018_Nov/4b8da04eb79265aa3d39fe506bfbfcf2.png)
Input File: 01. Firelight (Single Edit).mp3
Channels : 2
Sample Rate : 44100
Precision : 16-bit
Duration : 00:03:50.41 = 10161169 samples = 17280.9 CDDA sectors
File Size : 9.37M
Bit Rate : 325k
Sample Encoding: MPEG audio (layer I, II or III)
Comments :
Title=Firelight (Single Edit)
Artist=Within Temptation;Jasper Steverlinck
Album=Firelight (Single Edit)
Tracknumber=1/1
Year=2018
Discnumber=1/1



Register


Go to the top of the page
  Insert nick Quick quote
+Quote Post
 
Start new topic
Replies (1 - 7)
post Nov 22 2018, 17:48:20
Post #2

Правь статус, ####!111
**************
Group: Металариец
Posts: 36,504
Releases: 537
On Forums: 9 years 7 months
Thanks: 28230 time(s)
Russian Federation


@320

Register


Thanks:
(1) Lanceatum,
Go to the top of the page
  Insert nick Quick quote
+Quote Post
post Nov 22 2018, 19:18:49
Post #3

Group: Дух
Posts: 3
Releases: 0
On Forums: 9 years 9 months
Thanks: 2 time(s)
Russian Federation


Что ни песня - то новый мужик. Разврат какой-то (IMG:style_emoticons/default/1488.gif)
А серьезно: пока складывается ощущение, что альбом будет очень неплох, как минимум. Хотя чуйка меня почти всегда обманывает. Ну да в феврале узнаем.


Thanks:
(1) Nattfodd,
Go to the top of the page
  Insert nick Quick quote
+Quote Post
post Nov 22 2018, 19:32:37
Post #4

Волк без яблока
**************
Group: Металариец
Posts: 13,174
Releases: 104
From: Санкт-Петербург
On Forums: 12 years 3 months
Thanks: 14813 time(s)
Russian Federation


Вообще пустота, ну ладно, два предыдущих сингла были очень хорошими, спишем на левую балладу.
Go to the top of the page
  Insert nick Quick quote
+Quote Post
post Nov 25 2018, 08:45:31
Post #5

Перевозчик
**************
Group: Металариец
Posts: 2,838
Releases: 0
On Forums: 10 years 6 months
Thanks: 592 time(s)
Russian Federation


Go to the top of the page
  Insert nick Quick quote
+Quote Post
post Nov 26 2018, 15:58:00
Post #6

Восемь Литров
********
Group: Металариец
Posts: 858
Releases: 0
From: Харьков
On Forums: 10 years 10 months
Thanks: 611 time(s)
Ukraine


На сингл по хитовости не тянет конечно, но в целом зашла нормально. После предыдущего сингла с мистером Фриденом, смею лелеять кое-какие надежды на альбом.
Go to the top of the page
  Insert nick Quick quote
+Quote Post
post Dec 10 2018, 19:43:10
Post #7

Правь статус, ####!111
**************
Group: Металариец
Posts: 36,504
Releases: 537
On Forums: 9 years 7 months
Thanks: 28230 time(s)
Russian Federation


Ещё одын новый трэкчанский

Endless War @320

Register
Go to the top of the page
  Insert nick Quick quote
+Quote Post
post Jan 11 2019, 11:28:51
Post #8

Правь статус, ####!111
**************
Group: Металариец
Posts: 36,504
Releases: 537
On Forums: 9 years 7 months
Thanks: 28230 time(s)
Russian Federation


Продолжают подвозить

Go to the top of the page
  Insert nick Quick quote
+Quote Post

Reply to this topicStart new topic
2 User(s) are reading this topic (2 Guests and 0 Anonymous Users)
0 Members:

 



- Lo-Fi Version Support form
Copyrights and abuse reports form
Time is now: 22nd January 2019 - 22:21:26