Welcome Guest ( Log In | Register )

 
Reply to this topicStart new topic
> Absent/Minded - Raum (2018), Doom Metal/Sludge
post Nov 24 2018, 07:16:23
Post #1

Мегаманьяк
***********
Group: Металариец
Posts: 1,749
Releases: 1519
From: Одесса
On Forums: 10 years 11 months
Thanks: 12511 time(s)
Ukraine


(IMG:http://metalarea.org/images/audiocovers/2018_Nov/acov_tid313373_thumb.jpg)

*Artist: Absent/Minded
*Album: Raum
*Year: 2018
*Genre: Doom Metal/Sludge
*Country: Germany (IMG:http://metalarea.org/forum/style_images/flags/Germany.png)
*Format: mp3@CBR320kbps
*Size: 94MB

Tracklist:
1. Deep Roots aren´t reached by the Frost 07:25
2. Treasure 08:31
3. Fore Ever 07:34
4. Shore 06:22
5. Yrtm (spoken by iain hargreaves) 02:56
6. Alpha 09:46
******************************
Total playing time: 42:34



Extended info
Line - up:

Jürgen - Drums (Neocosmic, Unmercenaries, ex-My Shameful, ex-Sources, ex-Falling Down, ex-Aasgeier)
Uwe - Guitars (ex-Carpe Noctum, ex-Abdomen, ex-Karthasis)
Stevie - Vocals
Andi - Bass



Technical info
(IMG:http://metalarea.org/images/spectrogram/2018_Nov/16e602cf0a6efdadfa13f5d0efebeb84.png)
Input File: 06. Alpha.mp3
Channels : 2
Sample Rate : 44100
Precision : 16-bit
Duration : 00:09:46.77 = 25876645 samples = 44007.9 CDDA sectors
File Size : 23.5M
Bit Rate : 320k
Sample Encoding: MPEG audio (layer I, II or III)
Comments :
Title=Alpha
Artist=Absent/Minded
Album=Raum
Tracknumber=6
Year=2018
Genre=Doom/Sludge Metal



Register


Go to the top of the page
  Insert nick Quick quote
+Quote Post

Reply to this topicStart new topic
2 User(s) are reading this topic (2 Guests and 0 Anonymous Users)
0 Members:

 



- Lo-Fi Version Support form
Copyrights and abuse reports form
Time is now: 22nd May 2019 - 12:14:55