Welcome Guest ( Log In | Register )

> 

Здесь релизы с живыми прямыми ссылками на lossless

> Conscience - Psychonautisme (1995), Progressive Metal
post Nov 24 2018, 17:01:51
Post #1

Подвал
**************
Group: Металариец
Posts: 15,428
Releases: 8791
From: Far East (Khabarovsk)
On Forums: 11 years 10 months
Thanks: 93971 time(s)
Russian Federation


(IMG:http://metalarea.org/images/audiocovers/2018_Nov/acov_tid313407_thumb.jpg)

*Artist: Conscience
*Album: Psychonautisme
*Year: 1995
*Genre: Progressive Metal
*Country: Canada (IMG:http://metalarea.org/forum/style_images/flags/Canada.png)
*Format: mp3@CBR320kbps
*Size: 92MB

Tracklist:
1. Sur Le Bord De La Démence 04:25
2. Souvenir D'enfance 03:50
3. La Destinée 08:37
4. Subir Ou Devenir? 06:36
5. Prisonniére De Mes Pensées 05:08
6. Adrénaline 05:25
7. Se Rendre Jugement 04:58
******************************
Total playing time: 38:59

Extended info
ex-Awareness. All tracks are instrumental.
Archive file includes scans.


Technical info
(IMG:http://metalarea.org/images/spectrogram/2018_Nov/457652aa4f7698347edcd56f7a4af8b3.png)
Input File: 01-Sur Le Bord De La Démence.mp3
Channels : 2
Sample Rate : 44100
Precision : 16-bit
Duration : 00:04:25.46 = 11706962 samples = 19909.8 CDDA sectors
File Size : 10.6M
Bit Rate : 320k
Sample Encoding: MPEG audio (layer I, II or III)
Comments :
Title=Sur Le Bord De La Démence
Artist=Conscience (Can)
Album=Psychonautisme
Tracknumber=01
Year=1995
Genre=Progressive Metal



Register


Go to the top of the page
  Insert nick Quick quote
+Quote Post
 
Start new topic
Replies (1 - 5)
post Nov 26 2018, 07:43:37
Post #2

Два Литра
**
Group: Завсегдатай
Posts: 111
Releases: 0
On Forums: 3 years 7 months
Thanks: 40 time(s)
Russian Federation


Это не просто прог, а прог-трэш, причем в лучших традициях жанра!
Довольно навороченный, с тем самым тревожно-творческим настроением эпохи, просто праздник какой-то!
Альбом инструментальный, и это, пожалуй, единственный минус, потому что вокал, да еще на французском, здесь был бы очень уместен.


Go to the top of the page
  Insert nick Quick quote
+Quote Post
post Nov 26 2018, 09:28:15
Post #3

21st Century Schizoid Man
**************
Group: Металариец
Posts: 6,640
Releases: 82
From: Moscow
On Forums: 12 years 6 months
Thanks: 5571 time(s)
Russian Federation


Любопытный проект! Progressist, спасибо за отзыв. Так бы пропустил по-любому.
Клавишный 4-й трэк вообще космический. (IMG:style_emoticons/default/20.gif)
Go to the top of the page
  Insert nick Quick quote
+Quote Post
post Oct 17 2020, 19:24:32
Post #4

Четыре Литра
****
Group: Металариец
Posts: 381
Releases: 0
From: Сибирь
On Forums: 9 years 8 months
Thanks: 121 time(s)
Russian Federation


А по спектрам не 320. Но в сети можно и лосслесс найти
Go to the top of the page
  Insert nick Quick quote
+Quote Post
post Oct 20 2020, 06:40:06
Post #5

Group Icon
Group: S-moderation team
Posts: 17,894
Releases: 1441
From: Zagreb
On Forums: 9 years 9 months
Thanks: 81971 time(s)
Croatia


Register


Go to the top of the page
  Insert nick Quick quote
+Quote Post
post Oct 20 2020, 07:40:11
Post #6

Forever Underground
**************
Group: Металариец
Posts: 7,693
Releases: 0
On Forums: 5 years 7 months
Thanks: 10147 time(s)
Unknown


QUOTE(Ogidni @ Oct 17 2020, 20:24:32) *
А по спектрам не 320

@320kbps+scans; FLAC-rip (for those who don't want / need the lossless version):
Register

Thanks, Borderline1991 (IMG:style_emoticons/default/9.gif)
Go to the top of the page
  Insert nick Quick quote
+Quote Post

Reply to this topicStart new topic
1 User(s) are reading this topic (1 Guests and 0 Anonymous Users)
0 Members:

 



- Lo-Fi Version Support form
Copyrights and abuse reports form
Time is now: 30th November 2020 - 03:01:08