Welcome Guest ( Log In | Register )

> Lucifer's Cold Embrace - The Elegy Of Lilith (2018), Symphonic Blackened Death Metal
post Nov 29 2018, 15:28:21
Post #1

Правь статус, ####!111
**************
Group: Металариец
Posts: 21,193
Releases: 14476
From: Г.Харьков
On Forums: 7 years 10 months
Thanks: 258166 time(s)
Unknown


(IMG:http://metalarea.org/images/audiocovers/2018_Nov/acov_tid313553_thumb.jpg)

*Artist: Lucifer's Cold Embrace
*Album: The Elegy Of Lilith
*Year: 2018
*Genre: Symphonic Blackened Death Metal
*Country: Netherlands (IMG:http://metalarea.org/forum/style_images/flags/Netherlands.png)
*Format: mp3@CBR320kbps
*Size: 96MB

Tracklist:
01. The Sulphurous Hammering
02. Abrenuntio Deo
03. Angels of the Bottomless Pit
04. The Elegy of Lilith
05. Titanic
06. The Witches' Mark
07. Oubliette
08. CDXLVIII
09. Abyssal Descent
10. Legion
******************************
Total playing time: 45:46



Extended info
Martin van Beek Everything
See also: Non-Divine


Technical info
(IMG:http://metalarea.org/images/spectrogram/2018_Nov/086d4929a9c46c28dd8ea34a269e55fb.png)
Input File: 03. Angels of the Bottomless Pit.mp3
Channels : 2
Sample Rate : 44100
Precision : 16-bit
Duration : 00:04:33.76 = 12072596 samples = 20531.6 CDDA sectors
File Size : 11.0M
Bit Rate : 322k
Sample Encoding: MPEG audio (layer I, II or III)
Comments :
Title=Angels of the Bottomless Pit
Artist=Lucifer's Cold Embrace
Album=The Elegy of Lilith
Tracknumber=3
Year=2018
Discnumber=1



Register


Go to the top of the page
  Insert nick Quick quote
+Quote Post
 
Start new topic
Replies (1 - 4)
post Nov 30 2018, 04:57:25
Post #2

Правь статус, ####!111
**************
Group: Металариец
Posts: 21,193
Releases: 14476
From: Г.Харьков
On Forums: 7 years 10 months
Thanks: 258166 time(s)
Unknown


Cloud Mail 320
Register


Go to the top of the page
  Insert nick Quick quote
+Quote Post
post Nov 30 2018, 21:37:03
Post #3

Тридцать лет на борту "Тяжёлого" крейсера
**************
Group: Металариец
Posts: 2,220
Releases: 0
From: Питер
On Forums: 12 years 9 months
Thanks: 599 time(s)
Russian Federation


Крепкая работа для одного чела
Диммуборгировщина в чуть более экстремальном и менее симфоническом варианте
Но в начале кряхтят совершенно невнятные композиции - это минус, зато со второй трети альбома идут очень крепкие треки, как в композиторском плане, так и в плане реализации
В целом - 4/5


Thanks:
(1) Sanctus,
Go to the top of the page
  Insert nick Quick quote
+Quote Post
post Dec 1 2018, 18:00:25
Post #4

Правь статус, ####!111
**************
Group: Металариец
Posts: 2,905
Releases: 8
From: Dnipro
On Forums: 11 years 8 months
Thanks: 923 time(s)
Ukraine


Хороший подгон, совсем даже не плохой альбомчик, не для однократно прослушивания.
Go to the top of the page
  Insert nick Quick quote
+Quote Post
post Dec 6 2019, 14:46:33
Post #5

Литр
*
Group: Подсевший
Posts: 64
Releases: 0
On Forums: 1 year 3 months
Thanks: 8 time(s)
Russian Federation


Это серьёзная музыкальная работа. Чувственная и грамотная подача музыкального материала. Лично мне очень импонирует сочетание обволакивающих мелодий и шквала электрогитарных, барабанных и клавишных вихрей.
Go to the top of the page
  Insert nick Quick quote
+Quote Post

Reply to this topicStart new topic
1 User(s) are reading this topic (1 Guests and 0 Anonymous Users)
0 Members:

 



- Lo-Fi Version Support form
Copyrights and abuse reports form
Time is now: 31st March 2020 - 17:21:40