Welcome Guest ( Log In | Register )

> Forum rules / Правила раздела

Here go releases which can't go to New releases forums due lack of information, stolen links or incorrect data and just founded in other sites links with minimum info. Reissue of this releases through Add release form with added/corrected data, info and own links highly welcomed.

Сюда уходят релизы, не пропущенные в основные релизные форумы по причинам отсутствия, недостаточности или неверности/некорректности сопровождающей информации, содержащие ссылки, указывающие на файлы, залитые не автором темы, а так же просто найденные где-то ссылки с минимумом информации. Переоформление тем отсюда через форму Добавления релиза с перезаливкой ссылок крайне приветствуется.

> Soilwork - Stålfågel [single] (2018), Modern Metal (D)
post Dec 3 2018, 18:10:07
Post #1

Правь статус, ####!111
**************
Group: Металариец
Posts: 38,572
Releases: 559
On Forums: 9 years 9 months
Thanks: 29413 time(s)
Russian Federation


(IMG:http://metalarea.org/images/audiocovers/2018_Dec/acov_tid313726_thumb.jpg)

*Artist: Soilwork
*Album: Stålfågel [single]
*Year: 2018
*Genre: Modern Metal
*Country: Sweden (IMG:http://metalarea.org/forum/style_images/flags/Sweden.png)
*Format: mp3@CBR320kbps
*Size: 10MB

Tracklist:
1. Stålfågel (feat. Alissa White-Gluz)
******************************
Total playing time: 4:25

Technical info
(IMG:http://metalarea.org/images/spectrogram/2018_Dec/d47c516c208d1face76f752e1ead23ee.png)
Input File: 01. Stålfågel (feat. Alissa White-Gluz).mp3
Channels : 2
Sample Rate : 44100
Precision : 16-bit
Duration : 00:04:25.92 = 11726852 samples = 19943.6 CDDA sectors
File Size : 10.9M
Bit Rate : 327k
Sample Encoding: MPEG audio (layer I, II or III)
Comments :
Title=Stålfågel (feat. Alissa White-Gluz)
Artist=Soilwork
Album=Stålfågel
Tracknumber=1/1
Year=2018
Discnumber=1/1



Register


Thanks:
(1) Aresson,
Go to the top of the page
  Insert nick Quick quote
+Quote Post
 
Start new topic
Replies (1 - 2)
post Dec 3 2018, 20:18:32
Post #2

Правь статус, ####!111
**************
Group: Металариец
Posts: 38,572
Releases: 559
On Forums: 9 years 9 months
Thanks: 29413 time(s)
Russian Federation


Сойдёт.
Go to the top of the page
  Insert nick Quick quote
+Quote Post
post Dec 24 2018, 21:36:03
Post #3

Правь статус, ####!111
**************
Group: Металариец
Posts: 38,572
Releases: 559
On Forums: 9 years 9 months
Thanks: 29413 time(s)
Russian Federation


Go to the top of the page
  Insert nick Quick quote
+Quote Post

Reply to this topicStart new topic
1 User(s) are reading this topic (1 Guests and 0 Anonymous Users)
0 Members:

 



- Lo-Fi Version Support form
Copyrights and abuse reports form
Time is now: 25th March 2019 - 10:35:37