Welcome Guest ( Log In | Register )

> Releases Upload / Добавление релизов

Добавить релиз тут / Click here to add release
Рекомендованные обменники / Recommended file shares

> Bast - Nanoångström (2018), Black/Doom Metal (D6)
post Dec 4 2018, 09:21:41
Post #1

Аннигилятор пивА
Group Icon
Group: V.I.P
Posts: 50,725
Releases: 15804
From: Koenigsberg - TILZIT
On Forums: 12 years 6 months
Thanks: 344803 time(s)
Russian Federation


(IMG:https://metalarea.org/images/audiocovers/2018_Dec/acov_tid313745_thumb.jpg)

*Artist: Bast
*Album: Nanoångström
*Year: 2018
*Genre: Black/Doom Metal
*Country: United Kingdom (IMG:https://metalarea.org/forum/style_images/flags/United%20Kingdom.png)
*Format: mp3@CBR320kbps
*Size: 139MB

Tracklist:
01. Distant Suns 02:40
02. Far Horizons 10:15
03. The Beckoning Void 10:53
04. Nanoångström 11:10
05. A Red Line through Black 09:56
06. The Ghosts which Haunt the Space Between the Stars 12:34
******************************
Total playing time: 57:28




Extended info
BAST is a three piece experimental vortex of blackened intensity and forlorn, mournful doom.
Gavin Thomas - Bass
Jon Lee - Drums, Vocals
Craig Bryant - Vocals, Guitars
Guest:
Chris Naughton - Vocals on tracks 3 & 6 (Winterfylleth, Atavist, Hammer of the Gods, Nine Covens, ex-Megatron, ex-Mên Scryfa, Cloaca, ex-Ashes)


Technical info
(IMG:https://metalarea.org/images/spectrogram/2018_Dec/0f22a72ff72d60b53843df2237f48c66.png)
Input File: 02 Far Horizons.mp3
Channels : 2
Sample Rate : 44100
Precision : 16-bit
Duration : 00:10:24.36 = 27534452 samples = 46827.3 CDDA sectors
File Size : 25.6M
Bit Rate : 329k
Sample Encoding: MPEG audio (layer I, II or III)
Comments :
Title=Far Horizons
Artist=Bast
Album=Nanoångström
Tracknumber=2/6
Year=2018
Genre=Doom/Sludge
Discnumber=1/1



Register


Go to the top of the page
  Insert nick Quick quote
+Quote Post
 
Start new topic
Replies (1 - 2)
post Dec 6 2018, 16:00:20
Post #2

Аннигилятор пивА
Group Icon
Group: V.I.P
Posts: 50,725
Releases: 15804
From: Koenigsberg - TILZIT
On Forums: 12 years 6 months
Thanks: 344803 time(s)
Russian Federation


mirror
Register


Thanks:
(1) tupec2,
Go to the top of the page
  Insert nick Quick quote
+Quote Post
post Dec 7 2018, 04:08:33
Post #3

кручу наждак
**************
Group: Металариец
Posts: 3,572
Releases: 92
From: Самара
On Forums: 8 years 6 months
Thanks: 2691 time(s)
Russian Federation


Отлично.
Go to the top of the page
  Insert nick Quick quote
+Quote Post

Reply to this topicStart new topic
2 User(s) are reading this topic (2 Guests and 0 Anonymous Users)
0 Members:

 



- Lo-Fi Version Support form
Copyrights and abuse reports form
Time is now: 10th December 2018 - 13:39:56