Welcome Guest ( Log In | Register )

> Ice Sword - Dragon Magic (2018), Epic Power Metal
post Dec 6 2018, 10:07:56
Post #1

Аннигилятор пивА
Group Icon
Group: V.I.P
Posts: 52,358
Releases: 16557
From: Koenigsberg - TILZIT
On Forums: 13 years 3 months
Thanks: 362232 time(s)
Russian Federation


(IMG:https://metalarea.org/images/audiocovers/2018_Dec/acov_tid313813_thumb.jpg)

*Artist: Ice Sword
*Album: Dragon Magic
*Year: 2018
*Genre: Epic Power Metal
*Country: United States (IMG:https://metalarea.org/forum/style_images/flags/United%20States.png)
*Format: mp3@CBR320kbps
*Size: 147MB

Tracklist:
01. Birth of Legend 04:21
02. Abysmal Dreariness 04:12
03. Wizard's Facade 02:48
04. Dragon Clash 05:15
05. Tormented Rebirth 02:49
06. Dispatch the Human Plague 04:12
07. Iniquitous Respite 05:05
08. On the Precipice of Rectification 05:03
09. A Foreboding Realization 10:23
10. Crestfallen Reverie 12:39
11. Sanctimonious Enmity 09:34
******************************
Total playing time: 1:06:21




Extended info
[Chris]- Keyboard, Vocals]
[Daniel- Guitar]
[Dineh- Guitar]
[Nate- Bass]
[Paul- Drums]



Technical info
(IMG:https://metalarea.org/images/spectrogram/2018_Dec/0c59de731e866b631096f3a85c09c92e.png)
Input File: 03 Wizard\'s Facade.mp3
Channels : 2
Sample Rate : 44100
Precision : 16-bit
Duration : 00:02:48.48 = 7429792 samples = 12635.7 CDDA sectors
File Size : 6.79M
Bit Rate : 323k
Sample Encoding: MPEG audio (layer I, II or III)
Comments :
Title=Wizard's Facade
Artist=ICE SWORD
Album=Dragon Magic
Tracknumber=03
Year=2018
Genre=Epic Power/Heavy Metal



Register


Go to the top of the page
  Insert nick Quick quote
+Quote Post
 
Start new topic
Replies (1 - 8)
post Dec 6 2018, 13:40:07
Post #2

hearer & reader
**************
Group: Металариец
Posts: 8,025
Releases: 104
From: Moscow
On Forums: 12 years 1 week
Thanks: 7517 time(s)
Russian Federation


Секунд десять выдержал. Однозначно, "шедевр".
Go to the top of the page
  Insert nick Quick quote
+Quote Post
post Dec 6 2018, 13:42:51
Post #3
BAN
Banned till
Oct 7 2019, 23:44:15



ЦИТАТА(AHBAnep @ Dec 6 2018, 16:40:07) *
Секунд десять выдержал.


30 (IMG:style_emoticons/default/1488.gif)

Кто больше ?
Go to the top of the page
  Insert nick Quick quote
+Quote Post
post Dec 6 2018, 13:54:24
Post #4

Миниманьяк
**************
Group: Металариец
Posts: 2,056
Releases: 11
From: Київ
On Forums: 13 years 7 months
Thanks: 1003 time(s)
Ukraine


вы врёте. вы лишь прочли названия артиста и альбома. первые 10-30 секунд там вообще мужик декламирует чего-то и музыки нет
Go to the top of the page
  Insert nick Quick quote
+Quote Post
post Dec 6 2018, 13:55:12
Post #5
BAN
Banned till
Oct 7 2019, 23:44:15



ЦИТАТА(randyhermit @ Dec 6 2018, 16:54:24) *
вы врёте. вы лишь прочли названия артиста и альбома. первые 10-30 секунд там вообще мужик декламирует чего-то и музыки нет


Так а кто тебе сказал шо мы слушали именно первую песню?
Go to the top of the page
  Insert nick Quick quote
+Quote Post
post Dec 6 2018, 13:56:33
Post #6

Миниманьяк
**************
Group: Металариец
Posts: 2,056
Releases: 11
From: Київ
On Forums: 13 years 7 months
Thanks: 1003 time(s)
Ukraine


ЦИТАТА(vosmidesijatye @ Dec 6 2018, 14:55:12) *
Так а кто тебе сказал шо мы слушали именно первую песню?

а, ну если по секунде с каждой песни, тогда совсем другое дело же!
Go to the top of the page
  Insert nick Quick quote
+Quote Post
post Dec 6 2018, 13:59:52
Post #7

Наливай!
**************
Group: Металариец
Posts: 5,395
Releases: 27
From: Москва-Бибирево
On Forums: 11 years 6 months
Thanks: 2605 time(s)
Russian Federation


Ворона в а*уе (IMG:style_emoticons/default/crazy.gif)
Go to the top of the page
  Insert nick Quick quote
+Quote Post
post Dec 6 2018, 14:10:57
Post #8

Три Литра
***
Group: Завсегдатай
Posts: 271
Releases: 1
From: Moscow
On Forums: 7 years 3 months
Thanks: 68 time(s)
Russian Federation


(IMG:https://f4.bcbits.com/img/0011338426_10.jpg)

Зато каковы посоны а))


Thanks:
Go to the top of the page
  Insert nick Quick quote
+Quote Post
post Dec 9 2018, 17:21:10
Post #9

Перевозчик
**************
Group: Металариец
Posts: 3,023
Releases: 0
On Forums: 11 years 2 months
Thanks: 654 time(s)
Russian Federation


Что за днище?!

ЦИТАТА(terrano2006 @ Dec 6 2018, 16:10:57) *
Зато каковы посоны а))


Второй справа Житняков? Почему с гитарой? (IMG:style_emoticons/default/1488.gif)
Go to the top of the page
  Insert nick Quick quote
+Quote Post

Reply to this topicStart new topic
2 User(s) are reading this topic (2 Guests and 0 Anonymous Users)
0 Members:

 



- Lo-Fi Version Support form
Copyrights and abuse reports form
Time is now: 16th September 2019 - 23:09:50