Welcome Guest ( Log In | Register )

> Deadborn - Dogma Anti God (2018), Technical Death Metal (D4)
post Dec 6 2018, 11:10:42
Post #1

Аннигилятор пивА
Group Icon
Group: V.I.P
Posts: 52,356
Releases: 16556
From: Koenigsberg - TILZIT
On Forums: 12 years 11 months
Thanks: 360737 time(s)
Russian Federation


(IMG:https://metalarea.org/images/audiocovers/2018_Dec/acov_tid313816_thumb.jpg)

*Artist: Deadborn
*Album: Dogma Anti God
*Year: 2018
*Genre: Technical Death Metal
*Country: Germany (IMG:https://metalarea.org/forum/style_images/flags/Germany.png)
*Format: mp3@CBR320kbps
*Size: 83MB

Tracklist:
1. Veneration 03:59
2. Sense of Delight 03:19
3. Canine Devotion 04:04
4. Dogma Anti God 03:37
5. Abortive Interment 04:30
6. Zero Moment of Truth 02:23
7. Your Symbol Burns 04:33
8. Heretic Torment 04:09
9. Prayer in Exigence 04:38
******************************
Total playing time: 35:12




Extended info
Slawek - Drums (2002-present) See also: ex-Ferocity, ex-Necrophagist
Mario Petrović - Vocals (lead) (2002-present), Vocals, Guitars (2002-2004) See also: ex-Necrophagist
Jo Morath - Guitars (2004-present)
Kevin Olasz "Die Eule" - Guitars (2012-present) See also: Aardvarks, God Enslavement, Maladie, ex-Jack Slater, ex-Act of Worship, ex-Thornostrum
Giulio Rimoli - Bass (2018-present) See also: ex-Eathrow, ex-Destrudo, Unison Theory, Bedsore, ex-Black Therapy


Technical info
(IMG:https://metalarea.org/images/spectrogram/2018_Dec/8db01eab67de096b8e490160967cc935.png)
Input File: 02 Sense of Delight.mp3
Channels : 2
Sample Rate : 44100
Precision : 16-bit
Duration : 00:03:19.51 = 8798303 samples = 14963.1 CDDA sectors
File Size : 8.27M
Bit Rate : 332k
Sample Encoding: MPEG audio (layer I, II or III)
Comments :
Title=Sense of Delight
Artist=Deadborn
Album=Dogma Anti God
Tracknumber=2/9
Year=2018
Genre=Metal
Discnumber=1/1



Register


Go to the top of the page
  Insert nick Quick quote
+Quote Post
 
Start new topic
Replies (1 - 5)
post Dec 6 2018, 12:01:07
Post #2

Аннигилятор пивА
Group Icon
Group: V.I.P
Posts: 52,356
Releases: 16556
From: Koenigsberg - TILZIT
On Forums: 12 years 11 months
Thanks: 360737 time(s)
Russian Federation


MIRROR
Register



Go to the top of the page
  Insert nick Quick quote
+Quote Post
post Dec 7 2018, 11:27:35
Post #3

тебе 28, а ты все реверсами балуешься
***********
Group: Металариец
Posts: 1,644
Releases: 4
On Forums: 10 years 9 months
Thanks: 449 time(s)
Russian Federation


Вроде бы ничего особенного, но зашло очень сильно.
Истосковался по такому звуку, вокалу.

Местами грувчик качает, местами бластбитная стенка - напомнили Hour of Penance, но чуть посуше, менее брутально.
Go to the top of the page
  Insert nick Quick quote
+Quote Post
post Dec 20 2018, 08:25:29
Post #4

Два Литра
**
Group: Завсегдатай
Posts: 120
Releases: 0
From: TheМля
On Forums: 12 years 7 months
Thanks: 37 time(s)
Belarus


Как по мне, то в ТОП года, отличный дезняк.
Go to the top of the page
  Insert nick Quick quote
+Quote Post
post Jan 14 2019, 13:07:15
Post #5

Schuldinerist
**************
Group: Металариец
Posts: 10,177
Releases: 33
From:
On Forums: 12 years 1 month
Thanks: 6331 time(s)
Russian Federation


Одна из команд на осколках Necrophagist всё никак не прыгнет выше своей головы, а выдает уже третий подряд качественный альбом стабильного высокого уровня, но не топ.
8/10
Go to the top of the page
  Insert nick Quick quote
+Quote Post
post Jan 21 2019, 13:15:37
Post #6

Морской Волк
******
Group: Металариец
Posts: 694
Releases: 0
From: Питер
On Forums: 10 years 7 months
Thanks: 369 time(s)
Russian Federation


Все тот же Deadborn, крепкий альбом, но предыдущие поинтереснее были, что ли. Короче, не зацепило.
Go to the top of the page
  Insert nick Quick quote
+Quote Post

Reply to this topicStart new topic
1 User(s) are reading this topic (1 Guests and 0 Anonymous Users)
0 Members:

 



- Lo-Fi Version Support form
Copyrights and abuse reports form
Time is now: 24th May 2019 - 12:13:58